<?xml version="1.0" standalone="no"?>
<!DOCTYPE svg PUBLIC "-//W3C//DTD SVG 1.1//EN" "http://www.w3.org/Graphics/SVG/1.1/DTD/svg11.dtd" >
<svg xmlns="http://www.w3.org/2000/svg">
<metadata>Generated by IcoMoon</metadata>
<defs>
<font id="os-icon-plugin-font" horiz-adv-x="1024">
<font-face units-per-em="1024" ascent="960" descent="-64" />
<missing-glyph horiz-adv-x="1024" />
<glyph unicode="&#x20;" horiz-adv-x="512" d="" />
<glyph unicode="&#xe900;" glyph-name="os-form-address" horiz-adv-x="747" d="M373.333 953.6c-195.2 0-353.067-155.733-353.067-348.8s353.067-665.6 353.067-665.6 353.067 473.6 353.067 665.6c0 193.067-157.867 348.8-353.067 348.8zM107.733 596.267c0 148.267 119.467 268.8 265.6 268.8s265.6-120.533 265.6-268.8c0-103.467-147.2-353.067-265.6-524.8-118.4 171.733-265.6 421.333-265.6 524.8zM373.333 777.6c-98.133 0-177.067-78.933-177.067-176s78.933-176 177.067-176 177.067 78.933 177.067 176c0 97.067-78.933 176-177.067 176zM373.333 509.867c-53.333 0-88.533 42.667-88.533 90.667 0 49.067 39.467 88.533 88.533 88.533s88.533-39.467 88.533-88.533c0-48-35.2-90.667-88.533-90.667z" />
<glyph unicode="&#xe901;" glyph-name="os-form-email" d="M696.533 472.533l170.667 195.2c18.133 14.933 21.333 41.6 6.4 59.733s-41.6 21.333-59.733 6.4l-301.867-315.733-301.867 315.733c-18.133 14.933-44.8 11.733-59.733-6.4s-11.733-44.8 6.4-59.733l170.667-195.2-173.867-247.467c-17.067-16-17.067-42.667 0-59.733 8.533-8.533 19.2-12.8 29.867-12.8s21.333 4.267 29.867 12.8l179.2 252.8c0 0 1.067 1.067 1.067 2.133l91.733-89.6c7.467-6.4 17.067-9.6 26.667-9.6s19.2 3.2 26.667 9.6l91.733 89.6c0 0 1.067-1.067 1.067-2.133l179.2-252.8c8.533-8.533 19.2-12.8 29.867-12.8s21.333 4.267 29.867 12.8c17.067 16 17.067 42.667 0 59.733l-173.867 247.467zM778.667 953.6h-533.333c-141.867 0-245.333-113.067-245.333-252.8v-505.6c0-139.733 103.467-252.8 245.333-252.8h533.333c140.8 0 245.333 113.067 245.333 252.8v505.6c0 139.733-103.467 252.8-245.333 252.8zM938.667 195.2c0-92.8-66.133-168.533-160-168.533h-533.333c-93.867 0-160 75.733-160 168.533v505.6c0 92.8 66.133 168.533 160 168.533h533.333c93.867 0 160-75.733 160-168.533v-505.6z" />
<glyph unicode="&#xe902;" glyph-name="os-form-name" d="M43.733 866.133h936.533c24.533 0 43.733 19.2 43.733 43.733s-19.2 43.733-43.733 43.733h-936.533c-24.533 0-43.733-19.2-43.733-43.733s19.2-43.733 43.733-43.733zM980.267 646.4h-936.533c-24.533 0-43.733-19.2-43.733-43.733s19.2-43.733 43.733-43.733h936.533c24.533 0 43.733 19.2 43.733 43.733 0 23.467-19.2 43.733-43.733 43.733zM980.267 338.133h-936.533c-24.533 0-43.733-19.2-43.733-43.733s19.2-43.733 43.733-43.733h936.533c24.533 0 43.733 19.2 43.733 43.733 0 23.467-19.2 43.733-43.733 43.733zM578.133 29.867h-534.4c-24.533 0-43.733-19.2-43.733-43.733s19.2-43.733 43.733-43.733h534.4c24.533 0 43.733 19.2 43.733 43.733s-19.2 43.733-43.733 43.733z" />
<glyph unicode="&#xe903;" glyph-name="os-form-phone" horiz-adv-x="825" d="M553.6 953.6h-281.6c-141.867 0-256-114.133-256-253.867v-507.733c0-139.733 115.2-253.867 256-253.867h281.6c141.867 0 256 114.133 256 253.867v507.733c0 140.8-115.2 253.867-256 253.867zM272 869.333h281.6c66.133 0 123.733-37.333 151.467-91.733h-585.6c28.8 54.4 86.4 91.733 152.533 91.733zM724.267 193.067c0-92.8-76.8-169.6-170.667-169.6h-281.6c-93.867 0-170.667 75.733-170.667 169.6v10.667h622.933v-10.667zM724.267 292.267h-624v396.8h622.933v-396.8zM456.533 160h-88.533v-88.533h88.533v88.533z" />
<glyph unicode="&#xe904;" glyph-name="os-common-arrow-left2" d="M402.752 82.752l-320 320c-24.992 24.992-24.992 65.504 0 90.496l320 320c24.992 24.992 65.504 24.992 90.496 0s24.992-65.504 0-90.496l-210.752-210.752h613.504c35.36 0 64-28.64 64-64s-28.64-64-64-64h-613.504l210.752-210.752c12.48-12.48 18.752-28.864 18.752-45.248s-6.24-32.768-18.752-45.248c-24.992-24.992-65.504-24.992-90.496 0z" />
<glyph unicode="&#xe905;" glyph-name="os-common-arrow-right2" d="M621.248 82.752l320 320c24.992 24.992 24.992 65.504 0 90.496l-320 320c-24.992 24.992-65.504 24.992-90.496 0s-24.992-65.504 0-90.496l210.752-210.752h-613.504c-35.36 0-64-28.64-64-64s28.64-64 64-64h613.504l-210.752-210.752c-12.48-12.48-18.752-28.864-18.752-45.248s6.24-32.768 18.752-45.248c24.992-24.992 65.504-24.992 90.496 0z" />
<glyph unicode="&#xe906;" glyph-name="os-reports-list" horiz-adv-x="1150" d="M209.067 521.6v-21.333h21.333v21.333h-21.333zM230.4 458.667h-21.333v-21.333h21.333v21.333zM167.467 541.867v-21.333h41.6v21.333h-41.6zM250.667 500.267h-21.333v-41.6h21.333v41.6zM961.067 500.267h-564.267v-104.533h564.267v104.533zM209.067 626.133h41.6v21.333h-41.6v167.467h-21.333v-21.333h-41.6v-21.333h41.6v-125.867h-41.6v-21.333h62.933zM961.067 772.267h-564.267v-104.533h564.267v104.533zM209.067 437.333h-21.333v-21.333h21.333v21.333zM961.067 228.267h-564.267v-104.533h564.267v104.533zM146.133 500.267h21.333v21.333h-21.333v-21.333zM250.667 166.4h-21.333v-62.933h21.333v62.933zM250.667 249.6h-21.333v-62.933h21.333v62.933zM230.4 82.133v21.333h-62.933v-21.333h62.933zM167.467 269.867v-21.333h62.933v21.333h-62.933zM187.733 417.067h-21.333v-21.333h21.333v21.333zM0 960v-1024h1149.867v1024h-1149.867zM1128.533-42.667h-1107.2v981.333h1107.2v-981.333zM250.667 354.133v42.667h-21.333v-21.333h-62.933v21.333h-21.333v-42.667h105.6zM146.133 228.267h21.333v21.333h-21.333v-21.333zM167.467 186.667v-21.333h62.933v21.333h-62.933zM167.467 123.733h-21.333v-21.333h21.333v21.333z" />
<glyph unicode="&#xe907;" glyph-name="os-reports-personality" horiz-adv-x="1150" d="M762.667 562.133c40.533 0 72.533 33.067 72.533 72.533s-33.067 72.533-72.533 72.533c-40.533 0-72.533-33.067-72.533-72.533s32-72.533 72.533-72.533zM387.2 562.133c40.533 0 72.533 33.067 72.533 72.533s-33.067 72.533-72.533 72.533c-40.533 0-72.533-33.067-72.533-72.533s32-72.533 72.533-72.533zM564.267 146.133c153.6 0 291.2 67.2 386.133 172.8l-73.6 73.6c-76.8-86.4-187.733-141.867-312.533-141.867s-236.8 55.467-312.533 141.867l-73.6-73.6c94.933-106.667 232.533-172.8 386.133-172.8zM1.067 958.933v-1021.867h1146.667v1021.867h-1146.667zM1127.467-41.6h-1105.067v979.2h1105.067v-979.2z" />
<glyph unicode="&#xe908;" glyph-name="os-reports-poll" horiz-adv-x="1150" d="M961.067 771.2h-563.2v-104.533h563.2v104.533zM961.067 500.267h-563.2v-104.533h563.2v104.533zM961.067 229.333h-563.2v-104.533h563.2v104.533zM1.067 958.933v-1021.867h1147.733v1021.867h-1147.733zM1127.467-42.667h-1106.133v981.333h1106.133v-981.333zM199.467 103.467c40.533 0 72.533 33.067 72.533 72.533s-33.067 72.533-72.533 72.533-72.533-33.067-72.533-72.533 32-72.533 72.533-72.533zM199.467 229.333c28.8 0 52.267-23.467 52.267-52.267s-23.467-52.267-52.267-52.267-52.267 23.467-52.267 52.267 23.467 52.267 52.267 52.267zM199.467 375.467c40.533 0 72.533 33.067 72.533 72.533s-33.067 72.533-72.533 72.533-72.533-33.067-72.533-72.533 32-72.533 72.533-72.533zM199.467 646.4c40.533 0 72.533 33.067 72.533 72.533s-33.067 72.533-72.533 72.533-72.533-33.067-72.533-72.533 32-72.533 72.533-72.533zM199.467 771.2c28.8 0 52.267-23.467 52.267-52.267s-23.467-52.267-52.267-52.267-52.267 23.467-52.267 52.267 23.467 52.267 52.267 52.267z" />
<glyph unicode="&#xe909;" glyph-name="os-reports-set" horiz-adv-x="1150" d="M793.6 604.8h-480v-104.533h481.067v104.533zM793.6 395.733h-480v-104.533h481.067v104.533zM793.6 186.667h-480v-104.533h481.067v104.533zM209.067 960v-104.533h-104.533v-104.533h-104.533v-814.933h940.8v104.533h104.533v104.533h104.533v814.933h-940.8zM919.467-42.667h-898.133v772.267h898.133v-772.267zM1024 61.867h-83.2v689.067h-814.933v83.2h898.133v-772.267zM1128.533 166.4h-83.2v689.067h-814.933v83.2h898.133v-772.267zM156.8 82.133c28.8 0 52.267 23.467 52.267 52.267s-23.467 52.267-52.267 52.267c-28.8 0-52.267-23.467-52.267-52.267s23.467-52.267 52.267-52.267zM156.8 166.4c17.067 0 30.933-13.867 30.933-30.933s-13.867-30.933-30.933-30.933-30.933 13.867-30.933 30.933 13.867 30.933 30.933 30.933zM156.8 291.2c28.8 0 52.267 23.467 52.267 52.267s-23.467 52.267-52.267 52.267c-28.8 0-52.267-23.467-52.267-52.267s23.467-52.267 52.267-52.267zM156.8 500.267c28.8 0 52.267 23.467 52.267 52.267s-23.467 52.267-52.267 52.267c-28.8 0-52.267-23.467-52.267-52.267s23.467-52.267 52.267-52.267zM156.8 583.467c17.067 0 30.933-13.867 30.933-30.933s-13.867-30.933-30.933-30.933-30.933 13.867-30.933 30.933 13.867 30.933 30.933 30.933z" />
<glyph unicode="&#xe90a;" glyph-name="os-widget-slideshow" horiz-adv-x="1150" d="M0 960v-1024h1149.867v1024h-1149.867zM1128.533-42.667h-1107.2v981.333h1107.2v-981.333zM19.733 775.573h125.973v-420.8h-125.973v-19.2h145.173v459.307h-145.173v-19.2zM79.467 181.333c-21.208 0-38.4-17.192-38.4-38.4s17.192-38.4 38.4-38.4c21.208 0 38.4 17.192 38.4 38.4s-17.192 38.4-38.4 38.4zM1128 775.147v19.2h-155.84v-458.773h155.84v19.2h-136.64v420.8h136.64zM1059.627 181.333c-21.208 0-38.4-17.192-38.4-38.4s17.192-38.4 38.4-38.4c21.208 0 38.4 17.192 38.4 38.4s-17.192 38.4-38.4 38.4zM233.173 181.333c-21.208 0-38.4-17.192-38.4-38.4s17.192-38.4 38.4-38.4c21.208 0 38.4 17.192 38.4 38.4s-17.192 38.4-38.4 38.4zM876.053 794.88h-615.040v-459.307h615.040v459.307zM856.853 354.88h-576.64v420.693h576.533v-420.8zM905.92 181.333c-21.208 0-38.4-17.192-38.4-38.4s17.192-38.4 38.4-38.4c21.208 0 38.4 17.192 38.4 38.4s-17.192 38.4-38.4 38.4zM752.107 181.333c-21.208 0-38.4-17.192-38.4-38.4s17.192-38.4 38.4-38.4c21.208 0 38.4 17.192 38.4 38.4s-17.192 38.4-38.4 38.4zM569.6 220.267c-37.172 0-67.307-30.134-67.307-67.307s30.134-67.307 67.307-67.307c37.172 0 67.307 30.134 67.307 67.307s-30.134 67.307-67.307 67.307zM386.987 181.333c-21.208 0-38.4-17.192-38.4-38.4s17.192-38.4 38.4-38.4c21.208 0 38.4 17.192 38.4 38.4s-17.192 38.4-38.4 38.4z" />
<glyph unicode="&#xe90b;" glyph-name="os-reports-trivia" horiz-adv-x="1150" d="M772.267 299.733l73.6 73.6 73.6-73.6 73.6 73.6-72.533 74.667 73.6 73.6-73.6 73.6-73.6-73.6-73.6 73.6-73.6-73.6 73.6-73.6-73.6-73.6 72.533-74.667zM585.6 772.267h-21.333v-647.467h21.333v647.467zM0 960v-1024h1149.867v1024h-1149.867zM1128.533-42.667h-1107.2v981.333h1107.2v-981.333zM462.933 514.133l-73.6 73.6-133.333-132.267-58.667 58.667-74.667-74.667 133.333-132.267 206.933 206.933z" />
<glyph unicode="&#xe90c;" glyph-name="os-common-up" d="M35.2 169.6c43.733-43.733 115.2-43.733 158.933 0l317.867 317.867 317.867-317.867c43.733-43.733 115.2-43.733 158.933 0s43.733 115.2 0 158.933l-397.867 397.867c-43.733 43.733-115.2 43.733-158.933 0l-397.867-397.867c-42.667-43.733-42.667-115.2 1.067-158.933z" />
<glyph unicode="&#xe90d;" glyph-name="os-layout-image-poll" horiz-adv-x="1033" d="M595.2-60.8c-16 0-27.733 12.8-27.733 27.733v402.133c0 16 12.8 27.733 27.733 27.733h402.133c16 0 27.733-12.8 27.733-27.733v-402.133c0-14.933-12.8-27.733-27.733-27.733h-402.133zM437.333-60.8c16 0 27.733 12.8 27.733 27.733v402.133c0 16-12.8 27.733-27.733 27.733h-402.133c-16 0-27.733-12.8-27.733-27.733v-402.133c0-14.933 12.8-27.733 27.733-27.733h402.133zM997.333 499.2c16 0 27.733 12.8 27.733 27.733v402.133c0 14.933-12.8 27.733-27.733 27.733h-402.133c-16 0-27.733-12.8-27.733-27.733v-402.133c0-16 12.8-27.733 27.733-27.733h402.133zM437.333 499.2c16 0 27.733 12.8 27.733 27.733v402.133c0 14.933-12.8 27.733-27.733 27.733h-402.133c-14.933 0-27.733-12.8-27.733-27.733v-402.133c0-16 12.8-27.733 27.733-27.733h402.133z" />
<glyph unicode="&#xe90e;" glyph-name="os-common-arrow-left" d="M517.333 949.333c-279.467 0-506.667-227.2-506.667-506.667s227.2-506.667 506.667-506.667c279.467 0 506.667 227.2 506.667 506.667s-227.2 506.667-506.667 506.667zM517.333-13.867c-251.733 0-456.533 203.733-456.533 456.533 0 251.733 203.733 456.533 456.533 456.533 251.733 0 456.533-203.733 456.533-456.533 0-251.733-204.8-456.533-456.533-456.533zM659.2 674.133c-14.933 12.8-38.4 12.8-53.333 0l-229.333-206.933c-14.933-12.8-14.933-34.133 0-48l229.333-206.933c14.933-12.8 38.4-12.8 53.333 0s14.933 34.133 0 48l-202.667 182.4 202.667 183.467c14.933 12.8 14.933 34.133 0 48z" />
<glyph unicode="&#xe90f;" glyph-name="os-common-arrow-right" d="M10.667 442.667c0-279.467 227.2-506.667 506.667-506.667s506.667 227.2 506.667 506.667c0 279.467-227.2 506.667-506.667 506.667s-506.667-227.2-506.667-506.667zM60.8 442.667c0 251.733 203.733 456.533 456.533 456.533 251.733 0 456.533-203.733 456.533-456.533 0-251.733-203.733-456.533-456.533-456.533-251.733 0-456.533 204.8-456.533 456.533zM375.467 626.133l202.667-183.467-202.667-182.4c-14.933-12.8-14.933-34.133 0-48s38.4-13.867 53.333 0l229.333 206.933c14.933 12.8 14.933 34.133 0 48l-229.333 206.933c-14.933 12.8-38.4 12.8-53.333 0-14.933-13.867-14.933-35.2 0-48z" />
<glyph unicode="&#xe910;" glyph-name="os-form-user" horiz-adv-x="1047" d="M523.733 957.867c-281.6 0-509.867-228.267-509.867-509.867s228.267-509.867 509.867-509.867c281.6 0 509.867 228.267 509.867 509.867s-228.267 509.867-509.867 509.867zM523.733 35.2c-106.667 0-202.667 40.533-276.267 105.6 10.667 10.667 44.8 42.667 109.867 69.333 54.4-54.4 120.533-93.867 173.867-96 54.4 2.133 119.467 41.6 173.867 96 54.4-22.4 87.467-48 102.4-61.867-73.6-69.333-173.867-113.067-283.733-113.067zM853.333 200.533c-23.467 21.333-72.533 61.867-165.333 93.867-50.133-55.467-107.733-99.2-157.867-102.4-50.133 2.133-107.733 45.867-157.867 102.4-105.6-36.267-155.733-84.267-172.8-102.4-55.467 70.4-88.533 158.933-88.533 256 0 228.267 184.533 412.8 412.8 412.8s412.8-184.533 412.8-412.8c0-92.8-30.933-179.2-83.2-247.467zM532.267 760.533c-176 0-205.867-97.067-205.867-221.867 0-65.067 94.933-291.2 205.867-291.2 108.8 0 205.867 196.267 205.867 291.2 0 123.733-28.8 221.867-205.867 221.867zM532.267 326.4c-74.667 0-136.533 156.8-136.533 203.733 0 89.6 19.2 161.067 136.533 161.067s136.533-70.4 136.533-161.067c0-46.933-65.067-203.733-136.533-203.733z" />
<glyph unicode="&#xe911;" glyph-name="os-sn-pinterest" horiz-adv-x="841" d="M443.733 955.733c-277.333 0-417.067-198.4-417.067-364.8 0-100.267 38.4-189.867 119.467-222.933 13.867-5.333 25.6 0 28.8 14.933 3.2 10.667 9.6 36.267 11.733 46.933 4.267 14.933 2.133 20.267-8.533 33.067-23.467 27.733-38.4 64-38.4 114.133 0 147.2 109.867 279.467 286.933 279.467 156.8 0 243.2-96 243.2-224 0-168.533-74.667-310.4-184.533-310.4-60.8 0-106.667 50.133-91.733 112 17.067 73.6 51.2 153.6 51.2 206.933 0 48-25.6 87.467-78.933 87.467-62.933 0-113.067-65.067-113.067-151.467 0-55.467 18.133-92.8 18.133-92.8s-64-270.933-74.667-317.867c-22.4-94.933-3.2-210.133-2.133-221.867 1.067-7.467 9.6-8.533 13.867-3.2 5.333 7.467 80 99.2 105.6 190.933 7.467 25.6 40.533 160 40.533 160 20.267-38.4 80-72.533 142.933-72.533 187.733 0 314.667 170.667 314.667 400 2.133 174.933-145.067 336-368 336z" />
<glyph unicode="&#xe912;" glyph-name="os-sn-reddit" horiz-adv-x="1243" d="M1235.2 496v0 0c-3.2 34.133-17.067 65.067-39.467 90.667-21.333 24.533-51.2 42.667-82.133 51.2v0c0 0 0 0-1.067 0v0 0c-13.867 3.2-27.733 5.333-41.6 5.333-30.933 0-62.933-8.533-89.6-26.667-7.467-4.267-13.867-9.6-19.2-13.867-3.2 1.067-5.333 3.2-7.467 4.267l-1.067 1.067c-87.467 50.133-186.667 73.6-285.867 80 0 39.467 4.267 80 21.333 114.133v0 0c11.733 23.467 35.2 39.467 61.867 41.6v0c5.333 0 9.6 1.067 14.933 1.067 34.133 0 69.333-11.733 101.333-26.667 0-2.133 0-3.2 0-5.333 0-36.267 14.933-69.333 39.467-94.933 23.467-25.6 56.533-41.6 90.667-44.8 5.333-1.067 11.733-1.067 17.067-1.067 35.2 0 69.333 13.867 96 37.333 26.667 22.4 44.8 55.467 48 91.733 0 0 0 0 0 0v0c1.067 5.333 1.067 10.667 1.067 16 0 28.8-9.6 55.467-24.533 78.933-16 22.4-37.333 41.6-62.933 51.2 0 0 0 0 0 0s0 0 0 0v0c-18.133 8.533-37.333 11.733-56.533 11.733-18.133 0-36.267-3.2-53.333-8.533v0 0c-28.8-11.733-54.4-32-71.467-58.667-39.467 16-81.067 25.6-123.733 25.6-16 0-32-1.067-48-4.267v0 0c-41.6-10.667-76.8-39.467-97.067-77.867-24.533-45.867-30.933-98.133-30.933-147.2-100.267-5.333-203.733-25.6-292.267-78.933-5.333-2.133-10.667-5.333-16-7.467-14.933 11.733-30.933 20.267-48 26.667v0 0c-19.2 7.467-39.467 10.667-59.733 10.667-4.267 0-8.533 0-12.8 0-1.067 0-1.067 0-2.133 0-40.533 0-77.867-19.2-105.6-46.933-27.733-28.8-45.867-67.2-45.867-108.8v0 0 0c1.067-28.8 11.733-56.533 26.667-80 14.933-22.4 35.2-40.533 57.6-53.333-1.067-11.733-2.133-23.467-2.133-36.267 0-53.333 14.933-105.6 42.667-150.4 51.2-84.267 134.4-141.867 221.867-178.133v0 0c84.267-34.133 174.933-50.133 265.6-50.133 60.8 0 121.6 7.467 180.267 21.333v0 0c110.933 27.733 219.733 84.267 291.2 179.2v0 0c38.4 50.133 60.8 114.133 60.8 178.133 0 11.733-1.067 23.467-2.133 36.267 23.467 12.8 43.733 32 58.667 54.4 16 24.533 25.6 53.333 25.6 83.2 1.067 3.2 0 6.4 0 8.533zM960 860.8c9.6 11.733 23.467 20.267 37.333 24.533v0 0c5.333 2.133 10.667 2.133 16 2.133 17.067 0 35.2-7.467 48-20.267s21.333-29.867 21.333-46.933c0-1.067 0-2.133 0-4.267v0 0c-1.067-17.067-8.533-33.067-21.333-44.8s-28.8-19.2-45.867-19.2c-1.067 0-2.133 0-3.2 0v0 0c-17.067 0-33.067 7.467-45.867 19.2s-20.267 27.733-21.333 44.8v0 0c0 1.067 0 3.2 0 4.267-1.067 14.933 4.267 29.867 14.933 40.533zM115.2 427.733c-7.467 6.4-13.867 13.867-18.133 22.4-6.4 10.667-10.667 22.4-10.667 35.2 0 1.067 0 3.2 0 5.333v0 0c1.067 20.267 10.667 38.4 25.6 52.267s34.133 22.4 53.333 22.4v0 0c2.133 0 4.267 0 6.4 0 13.867 0 26.667-4.267 40.533-10.667-39.467-34.133-74.667-76.8-97.067-126.933zM1072 275.2v0 0c-6.4-33.067-20.267-62.933-40.533-89.6-19.2-26.667-43.733-50.133-70.4-70.4v0c-83.2-61.867-185.6-91.733-288-100.267-17.067-1.067-34.133-2.133-51.2-2.133-101.333 0-203.733 21.333-292.267 71.467-7.467 4.267-13.867 7.467-20.267 11.733-30.933 19.2-59.733 42.667-83.2 71.467-23.467 27.733-41.6 59.733-51.2 94.933v0c-4.267 16-6.4 32-6.4 49.067 0 44.8 14.933 89.6 41.6 124.8v0c51.2 71.467 131.2 118.4 214.4 145.067 64 20.267 131.2 29.867 198.4 29.867 50.133 0 99.2-5.333 148.267-17.067 16-3.2 32-8.533 48-12.8h1.067c83.2-25.6 163.2-72.533 214.4-145.067 25.6-36.267 41.6-80 41.6-124.8-1.067-11.733-2.133-24.533-4.267-36.267zM1146.667 451.2c-4.267-8.533-10.667-17.067-18.133-23.467-23.467 50.133-58.667 91.733-99.2 128 12.8 6.4 26.667 9.6 41.6 9.6 16 0 32-4.267 45.867-11.733s24.533-19.2 32-34.133v0 0c5.333-9.6 7.467-20.267 7.467-30.933 0-12.8-3.2-25.6-9.6-37.333zM836.267 204.8c-6.4 4.267-13.867 6.4-21.333 6.4-6.4 0-12.8-2.133-18.133-5.333-54.4-32-118.4-50.133-181.333-50.133-48 0-94.933 9.6-137.6 30.933v0 0c-6.4 2.133-13.867 8.533-21.333 13.867-4.267 2.133-8.533 5.333-12.8 7.467s-9.6 3.2-14.933 3.2c-4.267 0-9.6-1.067-13.867-3.2 0 0 0 0-1.067 0v0c-7.467-3.2-12.8-8.533-17.067-13.867-4.267-6.4-5.333-13.867-5.333-21.333 0-6.4 1.067-13.867 5.333-19.2 3.2-5.333 7.467-10.667 13.867-13.867 60.8-41.6 133.333-59.733 205.867-59.733 65.067 0 131.2 14.933 188.8 42.667v0 0c7.467 4.267 18.133 8.533 27.733 14.933 4.267 3.2 9.6 6.4 13.867 10.667s7.467 10.667 8.533 17.067c1.067 3.2 1.067 5.333 1.067 8.533 0 5.333-1.067 10.667-3.2 14.933-5.333 5.333-10.667 11.733-17.067 16zM885.333 402.133c0 0 0 0 0 0s0 1.067 0 0c-5.333 16-16 28.8-29.867 38.4-13.867 8.533-28.8 13.867-44.8 13.867-8.533 0-18.133-1.067-26.667-4.267 0 0 0 0 0 0s0 0 0 0c-14.933-5.333-27.733-14.933-36.267-27.733-9.6-12.8-14.933-28.8-14.933-44.8 0-4.267 0-9.6 1.067-13.867v0c0 0 0 0 0 0s0 0 0 0v0c3.2-18.133 13.867-34.133 27.733-44.8s32-17.067 49.067-17.067c7.467 0 14.933 1.067 22.4 4.267 0 0 0 0 0 0s0 0 0 0v0c16 4.267 29.867 14.933 39.467 27.733s16 29.867 16 45.867c2.133 6.4 0 14.933-3.2 22.4v0 0zM406.4 304c0 0 0 0 0 0 8.533-3.2 16-4.267 24.533-4.267 20.267 0 39.467 8.533 54.4 21.333s24.533 32 24.533 53.333c0 1.067 0 1.067 0 2.133s0 2.133 0 3.2c0 21.333-9.6 40.533-24.533 53.333-14.933 13.867-34.133 21.333-53.333 21.333-5.333 0-10.667-1.067-16-2.133 0 0 0 0 0 0s0 0 0 0c-26.667-5.333-50.133-25.6-58.667-52.267v0c0 0 0 0 0 0-2.133-7.467-3.2-14.933-3.2-22.4 0-17.067 5.333-33.067 14.933-45.867 8.533-12.8 21.333-23.467 37.333-27.733 0 0 0 0 0 0z" />
<glyph unicode="&#xe913;" glyph-name="os-sn-whatsapp" horiz-adv-x="1067" d="M542.933 962.133c-276.267 0-500.267-224-500.267-500.267 0-94.933 26.667-183.467 71.467-258.133l-90.667-268.8 277.333 88.533c71.467-39.467 154.667-61.867 242.133-61.867 276.267 0 500.267 224 500.267 500.267s-224 500.267-500.267 500.267v0zM542.933 40.533c-85.333 0-165.333 25.6-231.467 69.333l-162.133-52.267 52.267 156.8c-50.133 69.333-80 154.667-80 246.4 0 232.533 188.8 421.333 421.333 421.333s421.333-188.8 421.333-421.333c-1.067-231.467-189.867-420.267-421.333-420.267zM425.6 668.8c-8.533 19.2-13.867 20.267-26.667 20.267-4.267 0-8.533 0-13.867 0-16 0-33.067-4.267-42.667-14.933-12.8-12.8-42.667-41.6-42.667-102.4s43.733-118.4 50.133-126.933c6.4-8.533 85.333-134.4 210.133-185.6 97.067-40.533 125.867-36.267 147.2-32 32 7.467 72.533 30.933 82.133 59.733 10.667 28.8 10.667 53.333 7.467 58.667s-11.733 8.533-23.467 13.867c-12.8 6.4-72.533 36.267-84.267 39.467-11.733 4.267-21.333 3.2-29.867-9.6-11.733-16-23.467-33.067-33.067-43.733-7.467-7.467-19.2-8.533-29.867-4.267-13.867 5.333-52.267 19.2-99.2 60.8-36.267 32-60.8 72.533-68.267 85.333-7.467 13.867-1.067 21.333 4.267 27.733 6.4 7.467 11.733 12.8 18.133 20.267s9.6 10.667 13.867 19.2c4.267 8.533 1.067 17.067-2.133 22.4-3.2 6.4-27.733 66.133-37.333 91.733z" />
<glyph unicode="&#xe914;" glyph-name="os-brand-logo-small" d="M977.067 568.533c9.6 14.933 17.067 32 22.4 49.067 36.267 119.467-33.067 247.467-154.667 283.733-122.667 37.333-250.667-29.867-288-150.4-2.133-8.533-4.267-17.067-6.4-24.533-80 38.4-173.867 48-265.6 20.267-193.067-59.733-304-263.467-245.333-456.533 8.533-28.8 20.267-55.467 35.2-80l-74.667-226.133c26.667 38.4 82.133 70.4 149.333 80 48 6.4 92.8 1.067 126.933-13.867 68.267-21.333 144-23.467 217.6-1.067 179.2 54.4 285.867 232.533 257.067 410.667 33.067-4.267 67.2-1.067 98.133 8.533 22.4 8.533 50.133 12.8 80 8.533 42.667-5.333 77.867-25.6 93.867-49.067l-45.867 140.8zM482.133 99.2c-64-19.2-130.133-22.4-188.8-4.267-29.867 12.8-67.2 17.067-108.8 17.067-20.267 0-92.8-6.4-115.2-29.867 0 0 36.267 94.933 54.4 140.8-7.467 14.933-26.667 59.733-34.133 84.267-49.067 166.4 44.8 343.467 212.267 394.667s343.467-42.667 393.6-209.067c49.067-165.333-46.933-342.4-213.333-393.6zM954.667 507.733c-13.867 18.133-44.8 17.067-54.4 17.067s-44.8-1.067-61.867-8.533c-30.933-10.667-65.067-12.8-99.2-5.333-25.6 78.933-75.733 144-139.733 187.733 1.067 11.733 2.133 22.4 5.333 34.133 25.6 94.933 123.733 151.467 219.733 124.8s152.533-124.8 126.933-219.733c-4.267-13.867-19.2-38.4-25.6-50.133l28.8-80z" />
<glyph unicode="&#xe915;" glyph-name="os-brand-logo" horiz-adv-x="5412" d="M243.2 573.867c67.2 0 123.733-24.533 167.467-73.6 40.533-44.8 60.8-97.067 60.8-157.867s-21.333-115.2-64-160c-42.667-45.867-97.067-68.267-164.267-68.267s-122.667 22.4-165.333 68.267c-42.667 45.867-64 99.2-64 160s20.267 113.067 60.8 157.867c44.8 49.067 101.333 73.6 168.533 73.6zM243.2 519.467c-46.933 0-87.467-17.067-120.533-52.267-34.133-34.133-50.133-76.8-50.133-125.867 0-32 7.467-60.8 23.467-88.533 14.933-27.733 36.267-48 61.867-62.933s54.4-22.4 86.4-22.4c30.933 0 59.733 7.467 86.4 22.4s46.933 36.267 61.867 62.933c14.933 27.733 23.467 56.533 23.467 88.533 0 49.067-17.067 90.667-51.2 125.867-35.2 34.133-74.667 52.267-121.6 52.267zM577.067 563.2h56.533v-81.067c22.4 30.933 48 53.333 76.8 69.333 28.8 14.933 60.8 23.467 97.067 23.467 61.867 0 115.2-22.4 160-67.2s66.133-99.2 66.133-162.133c0-64-22.4-119.467-66.133-164.267s-97.067-67.2-158.933-67.2c-35.2 0-67.2 7.467-96 21.333-28.8 14.933-55.467 36.267-78.933 65.067v-235.733h-56.533v598.4zM802.133 519.467c-49.067 0-89.6-17.067-122.667-51.2s-50.133-76.8-50.133-126.933c0-33.067 7.467-62.933 22.4-89.6s36.267-48 64-62.933c27.733-16 56.533-23.467 87.467-23.467 29.867 0 58.667 7.467 85.333 23.467s48 37.333 64 66.133c16 27.733 23.467 57.6 23.467 88.533s-7.467 60.8-23.467 88.533c-16 27.733-36.267 49.067-62.933 65.067-26.667 14.933-55.467 22.4-87.467 22.4zM1130.667 563.2h56.533v-438.4h-56.533v438.4zM1303.467 563.2h56.533v-78.933c22.4 29.867 48 52.267 74.667 67.2 27.733 14.933 57.6 22.4 89.6 22.4 33.067 0 61.867-8.533 87.467-24.533 25.6-17.067 43.733-39.467 56.533-67.2 11.733-27.733 18.133-72.533 18.133-131.2v-225.067h-56.533v209.067c0 50.133-2.133 84.267-6.4 101.333-6.4 28.8-19.2 51.2-37.333 65.067-18.133 14.933-42.667 22.4-72.533 22.4-34.133 0-65.067-11.733-91.733-34.133s-44.8-50.133-53.333-84.267c-5.333-21.333-8.533-61.867-8.533-119.467v-161.067h-56.533v438.4zM1798.4 563.2h56.533v-438.4h-56.533v438.4zM2179.2 573.867c67.2 0 123.733-24.533 167.467-73.6 40.533-44.8 60.8-97.067 60.8-157.867s-21.333-115.2-64-160c-42.667-45.867-97.067-68.267-164.267-68.267s-122.667 22.4-165.333 68.267c-42.667 45.867-64 99.2-64 160s20.267 113.067 60.8 157.867c44.8 49.067 101.333 73.6 168.533 73.6zM2179.2 519.467c-46.933 0-87.467-17.067-120.533-52.267-34.133-34.133-50.133-76.8-50.133-125.867 0-32 7.467-60.8 23.467-88.533 14.933-27.733 36.267-48 61.867-62.933 26.667-14.933 54.4-22.4 86.4-22.4 30.933 0 59.733 7.467 86.4 22.4s46.933 36.267 61.867 62.933c14.933 27.733 23.467 56.533 23.467 88.533 0 49.067-17.067 90.667-51.2 125.867-34.133 34.133-74.667 52.267-121.6 52.267zM2512 563.2h56.533v-78.933c22.4 29.867 48 52.267 74.667 67.2 27.733 14.933 57.6 22.4 89.6 22.4 33.067 0 61.867-8.533 87.467-24.533 25.6-17.067 43.733-39.467 56.533-67.2 11.733-27.733 18.133-72.533 18.133-131.2v-225.067h-56.533v209.067c0 50.133-2.133 84.267-6.4 101.333-6.4 28.8-19.2 51.2-37.333 65.067-18.133 14.933-42.667 22.4-72.533 22.4-34.133 0-65.067-11.733-91.733-34.133s-44.8-50.133-53.333-84.267c-5.333-21.333-8.533-61.867-8.533-119.467v-161.067h-56.533v438.4zM3463.467 515.2l-36.267-37.333c-29.867 28.8-59.733 43.733-88.533 43.733-18.133 0-34.133-6.4-46.933-18.133s-19.2-26.667-19.2-42.667c0-13.867 5.333-27.733 16-40.533s33.067-28.8 68.267-45.867c41.6-21.333 70.4-42.667 85.333-62.933s22.4-43.733 22.4-69.333c0-36.267-12.8-66.133-38.4-91.733-25.6-24.533-56.533-37.333-94.933-37.333-25.6 0-49.067 5.333-72.533 16s-41.6 26.667-57.6 45.867l35.2 40.533c28.8-32 59.733-49.067 91.733-49.067 22.4 0 41.6 7.467 57.6 21.333 16 14.933 23.467 32 23.467 51.2 0 16-5.333 30.933-16 42.667-10.667 12.8-34.133 27.733-71.467 46.933-39.467 20.267-66.133 40.533-81.067 60.8-13.867 20.267-21.333 42.667-21.333 68.267 0 33.067 11.733 60.8 34.133 83.2s51.2 33.067 86.4 33.067c42.667 0 83.2-19.2 123.733-58.667zM3612.8 725.333h56.533v-163.2h89.6v-49.067h-89.6v-389.333h-56.533v390.4h-76.8v49.067h76.8v162.133zM4257.067 563.2v-438.4h-55.467v75.733c-23.467-28.8-50.133-50.133-80-65.067s-61.867-21.333-96-21.333c-61.867 0-115.2 22.4-158.933 67.2s-66.133 99.2-66.133 164.267c0 62.933 22.4 117.333 66.133 162.133 44.8 44.8 98.133 67.2 160 67.2 36.267 0 68.267-7.467 98.133-23.467 28.8-14.933 54.4-38.4 76.8-69.333v81.067h55.467zM4032 519.467c-30.933 0-60.8-7.467-86.4-23.467-26.667-14.933-48-37.333-62.933-65.067-16-27.733-23.467-57.6-23.467-88.533s7.467-60.8 23.467-88.533c16-27.733 37.333-50.133 64-66.133s55.467-23.467 86.4-23.467c30.933 0 59.733 7.467 87.467 23.467s49.067 36.267 64 62.933c14.933 26.667 22.4 56.533 22.4 89.6 0 51.2-17.067 92.8-50.133 126.933-35.2 35.2-76.8 52.267-124.8 52.267zM4761.6 563.2h56.533v-349.867c0-61.867-5.333-106.667-16-134.4-14.933-40.533-40.533-71.467-76.8-92.8s-80-33.067-131.2-33.067c-37.333 0-71.467 5.333-101.333 16s-54.4 24.533-73.6 42.667c-19.2 18.133-36.267 43.733-52.267 78.933h60.8c17.067-28.8 38.4-50.133 64-64 26.667-13.867 58.667-21.333 98.133-21.333 38.4 0 70.4 7.467 97.067 21.333s45.867 32 56.533 54.4c11.733 21.333 17.067 56.533 17.067 104.533v22.4c-21.333-26.667-46.933-46.933-77.867-61.867-30.933-13.867-62.933-21.333-97.067-21.333-40.533 0-77.867 9.6-114.133 29.867-35.2 20.267-62.933 46.933-82.133 81.067s-28.8 71.467-28.8 112c0 40.533 9.6 77.867 29.867 113.067s48 62.933 83.2 83.2c35.2 20.267 73.6 30.933 113.067 30.933 33.067 0 62.933-6.4 91.733-20.267s55.467-36.267 82.133-67.2v75.733zM4595.2 519.467c-32 0-61.867-7.467-88.533-23.467-27.733-14.933-49.067-36.267-64-64-16-27.733-23.467-56.533-23.467-88.533 0-48 16-87.467 48-119.467 32-30.933 73.6-46.933 124.8-46.933 52.267 0 93.867 16 124.8 46.933 32 30.933 46.933 72.533 46.933 122.667 0 33.067-7.467 62.933-21.333 88.533-14.933 25.6-35.2 45.867-61.867 61.867-25.6 14.933-54.4 22.4-85.333 22.4zM5307.733 269.867l48-24.533c-16-30.933-33.067-55.467-54.4-73.6-20.267-19.2-43.733-33.067-69.333-42.667s-54.4-14.933-86.4-14.933c-71.467 0-126.933 23.467-167.467 70.4s-60.8 100.267-60.8 158.933c0 55.467 17.067 105.6 51.2 148.267 43.733 55.467 101.333 83.2 173.867 83.2 74.667 0 134.4-28.8 179.2-85.333 32-40.533 48-89.6 48-149.333h-394.667c1.067-51.2 17.067-92.8 49.067-124.8 30.933-33.067 70.4-49.067 116.267-49.067 22.4 0 43.733 4.267 65.067 11.733s39.467 18.133 53.333 30.933c16 11.733 32 32 49.067 60.8zM5307.733 388.267c-7.467 29.867-18.133 54.4-33.067 72.533-13.867 18.133-33.067 32-56.533 43.733-23.467 10.667-48 16-74.667 16-42.667 0-80-13.867-110.933-41.6-22.4-20.267-39.467-50.133-51.2-90.667h326.4zM1810.133 837.333c59.733 8.533 116.267-32 124.8-92.8 3.2-22.4-1.067-44.8-10.667-64-6.4-9.6-9.6-22.4-9.6-37.333 0-20.267 6.4-38.4 17.067-48l-64 32c-7.467-3.2-16-5.333-25.6-7.467-59.733-8.533-116.267 32-124.8 92.8s33.067 116.267 92.8 124.8zM1221.333 940.8c-76.8 11.733-148.267-41.6-158.933-118.4-4.267-28.8 1.067-57.6 12.8-82.133 7.467-12.8 12.8-28.8 12.8-46.933 0-26.667-8.533-49.067-21.333-60.8l82.133 40.533c10.667-4.267 21.333-7.467 32-8.533 76.8-11.733 148.267 41.6 158.933 118.4 10.667 75.733-42.667 147.2-118.4 157.867z" />
<glyph unicode="&#xe916;" glyph-name="os-common-addnew" d="M956.8 478.933h-413.867v413.867c0 17.067-13.867 30.933-30.933 30.933s-30.933-13.867-30.933-30.933v-413.867h-413.867c-17.067 0-30.933-13.867-30.933-30.933s13.867-30.933 30.933-30.933h413.867v-413.867c0-17.067 13.867-30.933 30.933-30.933s30.933 13.867 30.933 30.933v413.867h413.867c17.067 0 30.933 13.867 30.933 30.933s-12.8 30.933-30.933 30.933z" />
<glyph unicode="&#xe917;" glyph-name="os-common-checkbox-blank" d="M882.133 955.733h-740.267c-76.8 0-138.667-61.867-138.667-138.667v-739.2c0-76.8 61.867-138.667 138.667-138.667h739.2c76.8 0 138.667 61.867 138.667 138.667v740.267c0 75.733-61.867 137.6-137.6 137.6zM977.067 108.8c0-70.4-56.533-126.933-126.933-126.933h-674.133c-70.4 0-126.933 56.533-126.933 126.933v675.2c0 69.333 57.6 126.933 126.933 126.933h675.2c70.4 0 126.933-56.533 126.933-126.933v-675.2z" />
<glyph unicode="&#xe918;" glyph-name="os-common-checkbox-checked" d="M882.133 955.733h-740.267c-76.8 0-138.667-61.867-138.667-138.667v-739.2c0-76.8 61.867-138.667 138.667-138.667h739.2c76.8 0 138.667 61.867 138.667 138.667v740.267c0 75.733-61.867 137.6-137.6 137.6zM977.067 108.8c0-70.4-56.533-126.933-126.933-126.933h-674.133c-70.4 0-126.933 56.533-126.933 126.933v675.2c0 69.333 57.6 126.933 126.933 126.933h675.2c70.4 0 126.933-56.533 126.933-126.933v-675.2zM720 695.467l-304-309.333-101.333 103.467-101.333-103.467 202.667-205.867 405.333 412.8-101.333 102.4z" />
<glyph unicode="&#xe919;" glyph-name="os-common-close" d="M1014.4 850.133l-100.267 100.267-402.133-402.133-402.133 402.133-100.267-100.267 402.133-402.133-402.133-402.133 100.267-100.267 402.133 402.133 402.133-402.133 100.267 100.267-402.133 402.133z" />
<glyph unicode="&#xe91a;" glyph-name="os-common-date" horiz-adv-x="1067" d="M672 217.6h-91.733v-91.733h91.733v91.733zM672 402.133h-91.733v-91.733h91.733v91.733zM855.467 402.133h-91.733v-91.733h91.733v91.733zM487.467 217.6h-91.733v-91.733h91.733v91.733zM302.933 217.6h-91.733v-91.733h91.733v91.733zM487.467 402.133h-91.733v-91.733h91.733v91.733zM302.933 402.133h-91.733v-91.733h91.733v91.733zM855.467 861.867v92.8h-91.733v-92.8h-460.8v92.8h-91.733v-92.8h-184.533v-919.467h1013.333v919.467h-184.533zM118.4 770.133h91.733v-91.733h91.733v91.733h460.8v-91.733h91.733v91.733h91.733v-184.533h-828.8v184.533zM948.267 33.067h-830.933v460.8h830.933v-460.8zM855.467 217.6h-91.733v-91.733h91.733v91.733z" />
<glyph unicode="&#xe91b;" glyph-name="os-common-dot" d="M512 957.867c281.6 0 509.867-228.267 509.867-509.867s-228.267-509.867-509.867-509.867c-281.6 0-509.867 228.267-509.867 509.867s228.267 509.867 509.867 509.867z" />
<glyph unicode="&#xe91c;" glyph-name="os-common-down" d="M988.8 726.4c-43.733 43.733-115.2 43.733-158.933 0l-317.867-317.867-317.867 317.867c-43.733 43.733-115.2 43.733-158.933 0s-43.733-115.2 0-158.933l397.867-397.867c43.733-43.733 115.2-43.733 158.933 0l397.867 397.867c42.667 43.733 42.667 115.2-1.067 158.933z" />
<glyph unicode="&#xe91d;" glyph-name="os-common-help" horiz-adv-x="1067" d="M533.333 954.667c-279.467 0-505.6-226.133-505.6-505.6s226.133-505.6 505.6-505.6c279.467 0 505.6 226.133 505.6 505.6s-226.133 505.6-505.6 505.6zM533.333-11.733c-253.867 0-459.733 205.867-459.733 459.733s205.867 459.733 459.733 459.733c253.867 0 459.733-205.867 459.733-459.733s-205.867-459.733-459.733-459.733zM489.6 278.4c-28.8 0-42.667-13.867-42.667-41.6 0-13.867 3.2-23.467 10.667-30.933s18.133-11.733 32-11.733c13.867 0 24.533 4.267 32 11.733s10.667 18.133 10.667 30.933c0 12.8-3.2 23.467-10.667 30.933s-18.133 10.667-32 10.667zM654.933 670.933c-30.933 21.333-72.533 30.933-124.8 30.933s-101.333-8.533-148.267-25.6c-26.667-9.6-14.933-30.933-14.933-30.933l10.667-18.133c0 0 12.8-17.067 39.467-8.533 0 0 0 0 1.067 0 11.733 4.267 23.467 7.467 35.2 10.667 21.333 5.333 45.867 8.533 70.4 8.533 27.733 0 50.133-5.333 65.067-14.933s22.4-23.467 22.4-41.6c0-16-4.267-28.8-13.867-40.533s-29.867-26.667-61.867-48c-26.667-17.067-45.867-33.067-56.533-49.067s-16-35.2-16-59.733c-1.067-17.067 26.667-21.333 26.667-21.333h17.067c0 0 30.933 0 36.267 21.333 0 0 0 0 0 1.067 1.067 13.867 5.333 25.6 11.733 34.133 8.533 10.667 25.6 23.467 50.133 39.467 28.8 18.133 50.133 33.067 61.867 44.8s21.333 23.467 26.667 36.267c5.333 12.8 8.533 26.667 8.533 43.733-1.067 38.4-16 67.2-46.933 87.467z" />
<glyph unicode="&#xe91e;" glyph-name="os-common-link" d="M950.4 886.4c-88.533 88.533-231.467 88.533-318.933 0l-119.467-119.467c-58.667-58.667-77.867-141.867-57.6-217.6l257.067 257.067c43.733 43.733 115.2 43.733 160 0 43.733-43.733 43.733-115.2 0-160l-120.533-118.4-136.533-137.6c74.667-20.267 157.867-1.067 217.6 57.6l119.467 119.467c87.467 88.533 87.467 231.467-1.067 318.933zM432 209.067l-119.467-120.533c-43.733-43.733-115.2-43.733-160 0-43.733 43.733-43.733 115.2 0 160l257.067 257.067c-74.667 20.267-157.867 1.067-217.6-57.6l-118.4-119.467c-88.533-88.533-88.533-231.467 0-318.933 88.533-88.533 231.467-88.533 318.933 0l119.467 119.467c58.667 58.667 77.867 141.867 57.6 217.6l-137.6-137.6zM273.067 209.067c22.4-22.4 57.6-22.4 80 0l397.867 398.933c22.4 22.4 22.4 57.6 0 80s-57.6 22.4-80 0l-397.867-400c-22.4-21.333-22.4-57.6 0-78.933z" />
<glyph unicode="&#xe91f;" glyph-name="os-common-menu-dd-closed" horiz-adv-x="652" d="M624 499.2l-484.267 439.467c-30.933 27.733-80 27.733-110.933 0s-30.933-73.6 0-101.333l427.733-389.333-427.733-388.267c-30.933-27.733-30.933-73.6 0-101.333s81.067-27.733 112 0l483.2 439.467c29.867 27.733 29.867 72.533 0 101.333z" />
<glyph unicode="&#xe920;" glyph-name="os-common-menu-dd-open" d="M512 317.867l-388.267 427.733c-27.733 30.933-73.6 30.933-101.333 0-28.8-30.933-28.8-81.067-1.067-112l439.467-483.2c27.733-30.933 73.6-30.933 101.333 0l440.533 483.2c27.733 30.933 27.733 81.067 0 112s-73.6 30.933-101.333 0l-389.333-427.733z" />
<glyph unicode="&#xe921;" glyph-name="os-common-menu-medium" d="M1010.133 804.267l-498.133-711.467-498.133 711.467h996.267z" />
<glyph unicode="&#xe922;" glyph-name="os-common-menu" horiz-adv-x="1067" d="M4.267 901.333v-151.467h1058.133v151.467h-1058.133zM4.267 372.267h1058.133v151.467h-1058.133v-151.467zM4.267-5.333h1058.133v151.467h-1058.133v-151.467z" />
<glyph unicode="&#xe923;" glyph-name="os-common-minimize" d="M0 567.467h1024v-227.2h-1024v227.2z" />
<glyph unicode="&#xe924;" glyph-name="os-common-more" d="M858.747 534.458c-48.235 0-86.458-39.135-86.458-86.458s39.135-86.458 86.458-86.458c48.235 0 86.458 39.135 86.458 86.458s-38.224 86.458-86.458 86.458zM512 534.458c-48.235 0-86.458-39.135-86.458-86.458s39.135-86.458 86.458-86.458c48.235 0 86.458 39.135 86.458 86.458s-38.224 86.458-86.458 86.458zM165.253 534.458c-48.235 0-86.458-39.135-86.458-86.458s39.135-86.458 86.458-86.458c48.235 0 86.458 39.135 86.458 86.458s-39.135 86.458-86.458 86.458z" />
<glyph unicode="&#xe925;" glyph-name="os-common-plus" d="M992 576h-352v352c0 17.664-14.336 32-32 32h-192c-17.664 0-32-14.336-32-32v-352h-352c-17.664 0-32-14.336-32-32v-192c0-17.664 14.336-32 32-32h352v-352c0-17.664 14.336-32 32-32h192c17.664 0 32 14.336 32 32v352h352c17.664 0 32 14.336 32 32v192c0 17.664-14.336 32-32 32z" />
<glyph unicode="&#xe926;" glyph-name="os-common-poll" d="M115.2 205.867c-60.8 0-109.867-49.067-109.867-109.867s49.067-109.867 109.867-109.867c60.8 0 109.867 49.067 109.867 109.867 0 59.733-49.067 109.867-109.867 109.867zM115.2 29.867c-36.267 0-66.133 29.867-66.133 66.133s29.867 66.133 66.133 66.133c36.267 0 66.133-29.867 66.133-66.133 0-37.333-29.867-66.133-66.133-66.133zM989.867 470.4h-603.733c-16 0-28.8-9.6-28.8-22.4s12.8-22.4 28.8-22.4h603.733c16 0 28.8 9.6 28.8 22.4s-12.8 22.4-28.8 22.4zM989.867 117.333h-603.733c-16 0-28.8-9.6-28.8-22.4 0-11.733 12.8-22.4 28.8-22.4h603.733c16 0 28.8 9.6 28.8 22.4s-12.8 22.4-28.8 22.4zM115.2 557.867c-60.8 0-109.867-49.067-109.867-109.867s49.067-109.867 109.867-109.867c60.8 0 109.867 49.067 109.867 109.867s-49.067 109.867-109.867 109.867zM115.2 381.867c-36.267 0-66.133 29.867-66.133 66.133s29.867 66.133 66.133 66.133c36.267 0 66.133-29.867 66.133-66.133s-29.867-66.133-66.133-66.133zM115.2 910.933c-60.8 0-109.867-49.067-109.867-109.867s49.067-109.867 109.867-109.867c60.8 0 109.867 49.067 109.867 109.867s-49.067 109.867-109.867 109.867zM115.2 734.933c-36.267 0-66.133 29.867-66.133 66.133s29.867 66.133 66.133 66.133c36.267 0 66.133-29.867 66.133-66.133s-29.867-66.133-66.133-66.133zM386.133 779.733h603.733c16 0 28.8 9.6 28.8 22.4s-12.8 22.4-28.8 22.4h-603.733c-16 0-28.8-9.6-28.8-22.4s12.8-22.4 28.8-22.4z" />
<glyph unicode="&#xe927;" glyph-name="os-common-search" horiz-adv-x="1067" d="M39.467 88.533l259.2 259.2c-37.333 60.8-59.733 131.2-59.733 206.933 0 220.8 179.2 400 400 400s400-179.2 400-400c0-220.8-179.2-400-400-400-76.8 0-147.2 22.4-206.933 59.733l-259.2-259.2c-18.133-18.133-48-18.133-67.2 0l-67.2 66.133c-17.067 19.2-17.067 49.067 1.067 67.2zM640 288c147.2 0 266.667 119.467 266.667 266.667s-119.467 266.667-266.667 266.667c-147.2 0-266.667-119.467-266.667-266.667s119.467-266.667 266.667-266.667z" />
<glyph unicode="&#xe928;" glyph-name="os-common-settings" d="M1014.4 453.333l-48 210.133-126.933 13.867-32 40.533 14.933 126.933-194.133 92.8-89.6-90.667h-52.267l-89.6 90.667-194.133-93.867 14.933-126.933-32-40.533-128-12.8-48-210.133 107.733-68.267 11.733-50.133-68.267-107.733 134.4-168.533 120.533 42.667 46.933-22.4 41.6-120.533h215.467l41.6 120.533 46.933 22.4 120.533-42.667 134.4 168.533-68.267 107.733 11.733 50.133 107.733 68.267zM868.267 232.533l-66.133-83.2-98.133 35.2-104.533-50.133-34.133-99.2h-106.667l-34.133 99.2-104.533 50.133-98.133-35.2-66.133 82.133 55.467 88.533-25.6 113.067-88.533 55.467 23.467 103.467 104.533 11.733 72.533 90.667-11.733 104.533 94.933 45.867 73.6-74.667h116.267l73.6 74.667 94.933-45.867-11.733-104.533 72.533-90.667 104.533-11.733 23.467-103.467-88.533-55.467-25.6-113.067 54.4-87.467zM512 634.667c-106.667 0-193.067-86.4-193.067-193.067s86.4-192 193.067-192 193.067 86.4 193.067 193.067-86.4 192-193.067 192zM512 307.2c-74.667 0-135.467 60.8-135.467 135.467s60.8 134.4 135.467 134.4 135.467-60.8 135.467-135.467-60.8-134.4-135.467-134.4z" />
<glyph unicode="&#xe929;" glyph-name="os-common-tip" horiz-adv-x="965" d="M142.933 485.333h-120.533c-10.667 0-18.133-8.533-18.133-19.2s8.533-19.2 18.133-19.2h120.533c10.667 0 18.133 8.533 18.133 19.2s-8.533 19.2-18.133 19.2zM197.333 657.067l-103.467 61.867c-8.533 5.333-20.267 2.133-25.6-7.467s-2.133-21.333 6.4-25.6l103.467-61.867c8.533-5.333 20.267-2.133 25.6 7.467 5.333 8.533 2.133 20.267-6.4 25.6zM296.533 759.467c5.333-9.6 17.067-11.733 25.6-7.467 8.533 5.333 11.733 17.067 6.4 26.667l-59.733 106.667c-5.333 9.6-17.067 11.733-25.6 7.467-8.533-5.333-11.733-17.067-6.4-25.6l59.733-107.733zM643.2 752c8.533-5.333 20.267-2.133 25.6 7.467l59.733 106.667c5.333 9.6 2.133 21.333-6.4 25.6-8.533 5.333-20.267 2.133-25.6-7.467l-59.733-106.667c-5.333-8.533-2.133-20.267 6.4-25.6zM483.2 796.8c10.667 0 18.133 8.533 18.133 19.2v122.667c0 10.667-8.533 19.2-18.133 19.2s-19.2-8.533-19.2-19.2v-122.667c0-10.667 8.533-19.2 19.2-19.2zM580.267 29.867h-195.2c-9.6 0-17.067-10.667-17.067-23.467s7.467-23.467 17.067-23.467h35.2c8.533-26.667 33.067-46.933 62.933-46.933s54.4 19.2 62.933 46.933h35.2c9.6 0 17.067 10.667 17.067 23.467-1.067 12.8-8.533 23.467-18.133 23.467zM942.933 485.333h-120.533c-10.667 0-18.133-8.533-18.133-19.2s8.533-19.2 18.133-19.2h120.533c10.667 0 18.133 8.533 18.133 19.2s-7.467 19.2-18.133 19.2zM897.067 711.467c-5.333 9.6-17.067 12.8-25.6 7.467l-103.467-61.867c-8.533-5.333-11.733-17.067-6.4-26.667s17.067-11.733 25.6-7.467l103.467 61.867c8.533 6.4 11.733 18.133 6.4 26.667zM483.2 725.333c-138.667 0-250.667-117.333-250.667-262.4 0-76.8 32-146.133 82.133-194.133 0 0 7.467-6.4 10.667-9.6 23.467-21.333 37.333-55.467 37.333-90.667h241.067c0 35.2 12.8 69.333 37.333 90.667 3.2 3.2 10.667 9.6 10.667 9.6 50.133 48 82.133 117.333 82.133 194.133 0 145.067-113.067 262.4-250.667 262.4zM620.8 298.667c0 0-6.4-5.333-9.6-8.533-19.2-18.133-40.533-45.867-40.533-75.733h-176c0 29.867-21.333 57.6-40.533 75.733-3.2 3.2-8.533 8.533-9.6 8.533-41.6 40.533-67.2 98.133-67.2 162.133 0 120.533 91.733 217.6 205.867 217.6s205.867-98.133 205.867-218.667c-1.067-64-26.667-121.6-68.267-161.067zM580.267 120.533h-195.2c-9.6 0-17.067-10.667-17.067-22.4 0-12.8 7.467-22.4 17.067-22.4h195.2c9.6 0 17.067 10.667 17.067 22.4 0 12.8-7.467 22.4-17.067 22.4z" />
<glyph unicode="&#xe92a;" glyph-name="os-filter-all" d="M366.933 926.933c-6.4-8.533-12.8-16-19.2-25.6-22.4-32-45.867-70.4-68.267-116.267-36.267 13.867-66.133 29.867-90.667 44.8 53.333 44.8 113.067 77.867 178.133 97.067zM147.2 786.133c28.8-18.133 65.067-40.533 110.933-58.667-27.733-71.467-49.067-164.267-53.333-259.2h-192c6.4 112 53.333 231.467 134.4 317.867zM12.8 411.733h192c2.133-106.667 22.4-183.467 50.133-254.933-43.733-18.133-78.933-39.467-106.667-57.6-82.133 86.4-129.067 189.867-135.467 312.533zM189.867 66.133c23.467 13.867 52.267 29.867 86.4 43.733 22.4-49.067 49.067-89.6 72.533-122.667 4.267-5.333 7.467-10.667 11.733-16-62.933 19.2-120.533 51.2-170.667 94.933zM488.533-51.2c-10.667 1.067-23.467 1.067-34.133 3.2-38.4 39.467-84.267 97.067-121.6 176 45.867 13.867 93.867 24.533 155.733 26.667v-205.867zM488.533 210.133c-72.533-2.133-128-18.133-179.2-34.133-25.6 67.2-45.867 140.8-48 235.733h227.2v-201.6zM488.533 468.267h-227.2c4.267 89.6 25.6 176 52.267 242.133 50.133-16 113.067-22.4 174.933-24.533v-217.6zM488.533 741.333c-55.467 2.133-107.733 11.733-152.533 24.533 19.2 39.467 38.4 72.533 57.6 100.267 22.4 32 45.867 57.6 65.067 78.933 9.6 1.067 18.133 2.133 28.8 2.133v-205.867h1.067zM833.067 832c-24.533-13.867-54.4-29.867-90.667-43.733-21.333 44.8-44.8 83.2-67.2 114.133-6.4 8.533-12.8 17.067-19.2 25.6 65.067-20.267 124.8-52.267 177.067-96zM538.667 947.2c17.067 0 19.2-1.067 28.8-2.133 19.2-21.333 41.6-46.933 64-77.867 19.2-26.667 38.4-59.733 57.6-98.133-44.8-13.867-93.867-23.467-150.4-26.667v204.8zM538.667 685.867c67.2 3.2 122.667 10.667 172.8 26.667 26.667-67.2 46.933-154.667 51.2-244.267h-224v217.6zM538.667 411.733h225.067c-2.133-89.6-18.133-163.2-46.933-237.867-51.2 16-104.533 33.067-178.133 36.267v201.6zM571.733-49.067c-10.667-1.067-16-2.133-33.067-3.2v205.867c67.2-3.2 109.867-13.867 154.667-27.733-17.067-36.267-38.4-70.4-62.933-103.467-20.267-28.8-40.533-52.267-58.667-71.467zM663.467-28.8c4.267 5.333 7.467 10.667 11.733 16 23.467 32 49.067 72.533 71.467 120.533 34.133-13.867 62.933-28.8 86.4-42.667-50.133-42.667-107.733-74.667-169.6-93.867zM875.733 101.333c-27.733 17.067-62.933 34.133-106.667 52.267 27.733 72.533 48 152.533 50.133 259.2h192c-6.4-123.733-53.333-226.133-135.467-311.467zM819.2 468.267c-4.267 94.933-25.6 190.933-54.4 263.467 44.8 18.133 82.133 36.267 110.933 53.333 82.133-86.4 129.067-204.8 135.467-316.8h-192z" />
<glyph unicode="&#xe92b;" glyph-name="os-filter-facebook" horiz-adv-x="531" d="M354.133 616.533v100.267c0 44.8 10.667 68.267 84.267 68.267h92.8v167.467h-154.667c-189.867 0-251.733-82.133-251.733-224v-112h-124.8v-168.533h124.8v-504.533h229.333v504.533h155.733l21.333 168.533h-177.067zM471.467 489.6h-161.067v-504.533h-140.8v504.533h-124.8v84.267h124.8v154.667c0 64 14.933 108.8 42.667 136.533 30.933 32 86.4 45.867 165.333 45.867h110.933v-84.267h-48c-33.067 0-75.733-3.2-102.4-30.933-22.4-23.467-25.6-53.333-25.6-78.933v-142.933h171.733l-12.8-84.267z" />
<glyph unicode="&#xe92c;" glyph-name="os-filter-female" horiz-adv-x="642" d="M643.2 635.733c0 177.067-144 321.067-321.067 321.067s-321.067-144-321.067-321.067c0-158.933 116.267-291.2 267.733-316.8v-112h-106.667v-106.667h106.667v-161.067h106.667v161.067h106.667v106.667h-106.667v112c151.467 25.6 267.733 156.8 267.733 316.8zM106.667 635.733c0 118.4 96 214.4 214.4 214.4s214.4-96 214.4-214.4c0-118.4-96-214.4-214.4-214.4s-214.4 96-214.4 214.4z" />
<glyph unicode="&#xe92d;" glyph-name="os-filter-friends" horiz-adv-x="1136" d="M1136 343.467l-222.933 44.8-110.933 204.8-60.8-113.067c-8.533 12.8-19.2 25.6-30.933 39.467-10.667 10.667-54.4 59.733-152.533 98.133 18.133 43.733 28.8 88.533 28.8 119.467 0 94.933-17.067 173.867-104.533 204.8-8.533 3.2-18.133 6.4-28.8 8.533-4.267 1.067-8.533 1.067-13.867 2.133-12.8 3.2-27.733 4.267-45.867 4.267-1.067 0-1.067 0-1.067 0s0 0-1.067 0c0 0 0 0-1.067 0s-1.067 0-1.067 0c-17.067 0-32-1.067-46.933-3.2-4.267-1.067-9.6-1.067-13.867-2.133-10.667-2.133-20.267-5.333-28.8-8.533-87.467-29.867-104.533-109.867-104.533-204.8 0-32 11.733-75.733 28.8-119.467-98.133-39.467-141.867-87.467-152.533-98.133-57.6-60.8-73.6-124.8-65.067-178.133v0c5.333-48 30.933-88.533 59.733-116.267 5.333-6.4 11.733-11.733 17.067-16 30.933-26.667 84.267-58.667 180.267-75.733 25.6-3.2 77.867-9.6 128-10.667 49.067 1.067 87.467 4.267 128 10.667 43.733 7.467 76.8 17.067 104.533 28.8l-27.733-224 206.933 99.2 205.867-99.2-27.733 232.533 154.667 171.733zM520.533 733.867c0-1.067 0-3.2 0-4.267 0-2.133-1.067-4.267-1.067-6.4 1.067 4.267 1.067 7.467 1.067 10.667zM391.467 887.467c112 0 130.133-70.4 130.133-157.867 0-24.533-18.133-82.133-45.867-130.133-11.733-19.2-24.533-37.333-39.467-50.133-13.867-12.8-28.8-21.333-45.867-21.333-16 0-30.933 8.533-45.867 21.333-13.867 12.8-26.667 29.867-39.467 50.133-26.667 46.933-45.867 103.467-45.867 130.133 2.133 88.533 20.267 157.867 132.267 157.867zM260.267 733.867c0-3.2 0-7.467 1.067-10.667 0 2.133-1.067 4.267-1.067 6.4s0 3.2 0 4.267zM391.467 195.2c-70.4 1.067-129.067 11.733-172.8 24.533-37.333 11.733-66.133 26.667-83.2 42.667-40.533 35.2-94.933 125.867-16 209.067-1.067-1.067 30.933 39.467 106.667 71.467l1.067-1.067c0 0 0 0 0-1.067 51.2-53.333 114.133-90.667 163.2-92.8v0 0c50.133 2.133 113.067 40.533 163.2 92.8 0 0 0 0 0 1.067l1.067 1.067c75.733-32 107.733-72.533 106.667-71.467 21.333-22.4 32-45.867 38.4-67.2l-8.533-16-224-44.8 107.733-119.467c-4.267-1.067-7.467-3.2-11.733-4.267-43.733-13.867-102.4-23.467-171.733-24.533zM802.133 105.6l-134.4-65.067 19.2 151.467-101.333 112 145.067 28.8 71.467 133.333 71.467-133.333 145.067-28.8-102.4-112 18.133-151.467-132.267 65.067z" />
<glyph unicode="&#xe92e;" glyph-name="os-filter-gplus" horiz-adv-x="1066" d="M659.2 955.733c0 0-233.6 0-312.533 0-142.933 0-278.4-100.267-278.4-226.133 0-128 97.067-228.267 243.2-228.267 9.6 0 20.267 2.133 29.867 3.2-9.6-18.133-16-37.333-16-58.667 0-35.2 19.2-64 42.667-88.533-18.133 0-36.267 0-55.467 0-176 1.067-312.533-112-312.533-229.333 0-115.2 149.333-187.733 326.4-187.733 202.667 0 313.6 115.2 313.6 229.333 0 91.733-27.733 148.267-112 208-28.8 20.267-84.267 69.333-84.267 99.2 0 34.133 9.6 51.2 60.8 91.733 52.267 40.533 89.6 89.6 89.6 157.867 0 80-34.133 178.133-101.333 178.133h114.133l52.267 51.2zM554.667 190.933c3.2-10.667 4.267-21.333 4.267-33.067 0-93.867-59.733-166.4-232.533-166.4-122.667 0-211.2 76.8-211.2 170.667 0 91.733 109.867 167.467 232.533 166.4 27.733 0 55.467-4.267 78.933-12.8 66.133-46.933 114.133-72.533 128-124.8v0zM358.4 537.6c-82.133 3.2-161.067 91.733-174.933 199.467s40.533 190.933 122.667 187.733c82.133-3.2 161.067-89.6 174.933-197.333 14.933-106.667-40.533-192-122.667-189.867v0zM913.067 550.4v151.467h-101.333v-151.467h-152.533v-101.333h151.467v-152.533h101.333v152.533h152.533v101.333h-151.467z" />
<glyph unicode="&#xe92f;" glyph-name="os-filter-hidden" horiz-adv-x="1435" d="M1434.667 448c0 0-202.667 500.267-717.867 500.267-514.133 0-716.8-500.267-716.8-500.267s251.733-500.267 716.8-500.267c133.333 0 248.533 40.533 345.6 99.2v0 0c244.267 146.133 372.267 401.067 372.267 401.067zM716.8 19.2c-423.467 0-651.733 428.8-651.733 428.8s82.133 188.8 273.067 315.733l147.2-145.067c-36.267-48-57.6-106.667-57.6-170.667 0-158.933 131.2-286.933 293.333-286.933 64 0 123.733 20.267 171.733 54.4l121.6-119.467c-85.333-44.8-184.533-76.8-297.6-76.8zM581.333 641.067c38.4 26.667 85.333 42.667 136.533 42.667 131.2 0 238.933-105.6 238.933-235.733 0-50.133-16-97.067-42.667-135.467l-332.8 328.533zM853.333 254.933c-38.4-26.667-85.333-42.667-136.533-42.667-131.2 0-237.867 105.6-237.867 235.733 0 50.133 16 97.067 42.667 135.467l331.733-328.533zM1086.933 139.733l-133.333 133.333c38.4 48 60.8 108.8 60.8 174.933 0 158.933-131.2 286.933-293.333 286.933-66.133 0-126.933-21.333-177.067-57.6l-130.133 129.067c84.267 41.6 184.533 69.333 302.933 69.333 468.267 1.067 652.8-427.733 652.8-427.733s-97.067-181.333-282.667-308.267z" />
<glyph unicode="&#xe930;" glyph-name="os-filter-male" horiz-adv-x="971" d="M970.667 872.533v87.467h-324.267v-107.733h151.467l-217.6-220.8c-58.667 37.333-128 58.667-202.667 58.667-208 0-377.6-168.533-377.6-377.6 0-208 168.533-376.533 377.6-376.533 208 0 377.6 168.533 377.6 377.6 0 94.933-35.2 181.333-92.8 247.467l200.533 202.667v-126.933h107.733v235.733zM377.6 43.733c-149.333 0-269.867 120.533-269.867 269.867s120.533 269.867 269.867 269.867 269.867-120.533 269.867-269.867-121.6-269.867-269.867-269.867z" />
<glyph unicode="&#xe931;" glyph-name="os-filter-public" horiz-adv-x="1198" d="M1142.4 546.133c-8.533 9.6-44.8 50.133-129.067 84.267 14.933 36.267 24.533 74.667 24.533 101.333 1.067 104.533-22.4 185.6-165.333 185.6-36.267 0-66.133-5.333-88.533-16-33.067 37.333-88.533 58.667-177.067 58.667-93.867 0-148.267-23.467-182.4-64-23.467 13.867-55.467 21.333-99.2 21.333-141.867 0-165.333-81.067-165.333-185.6 0-26.667 9.6-65.067 24.533-101.333-84.267-33.067-120.533-74.667-129.067-84.267-101.333-106.667-42.667-220.8 9.6-263.467 20.267-17.067 51.2-36.267 101.333-50.133-16-89.6 35.2-166.4 85.333-204.8s142.933-87.467 355.2-91.733c210.133 3.2 305.067 52.267 355.2 91.733 49.067 37.333 102.4 117.333 84.267 206.933 41.6 13.867 70.4 30.933 88.533 46.933 51.2 43.733 108.8 157.867 7.467 264.533zM872.533 859.733c94.933 0 109.867-59.733 109.867-134.4 0-39.467-52.267-169.6-109.867-169.6-25.6 0-50.133 24.533-70.4 55.467 18.133 42.667 28.8 86.4 28.8 117.333 0 44.8-3.2 86.4-16 121.6 16 5.333 34.133 9.6 57.6 9.6zM606.933 886.4c128 0 149.333-74.667 149.333-168.533 0-49.067-71.467-213.333-149.333-213.333-82.133 0-149.333 163.2-149.333 213.333 0 94.933 21.333 168.533 149.333 168.533zM326.4 859.733c30.933 0 53.333-6.4 70.4-17.067-10.667-33.067-13.867-72.533-13.867-114.133 0-20.267 9.6-55.467 25.6-97.067-20.267-39.467-49.067-77.867-81.067-77.867-57.6 0-109.867 131.2-109.867 169.6-2.133 76.8 14.933 136.533 108.8 136.533zM901.333 84.267c-42.667-35.2-147.2-73.6-294.4-76.8-148.267 3.2-251.733 40.533-294.4 76.8-44.8 38.4-110.933 133.333-18.133 222.933-1.067-1.067 36.267 41.6 123.733 76.8 59.733-56.533 132.267-99.2 190.933-101.333 59.733 2.133 130.133 43.733 190.933 101.333 87.467-34.133 124.8-77.867 123.733-76.8 86.4-88.533 23.467-184.533-22.4-222.933zM1090.133 326.4c-13.867-11.733-36.267-24.533-66.133-34.133-11.733 21.333-27.733 43.733-50.133 66.133-12.8 11.733-67.2 69.333-195.2 112-54.4-57.6-118.4-104.533-171.733-107.733-54.4 2.133-118.4 48-171.733 107.733-128-42.667-182.4-100.267-195.2-112-23.467-22.4-40.533-45.867-52.267-70.4-34.133 10.667-61.867 24.533-76.8 37.333-33.067 29.867-81.067 106.667-13.867 178.133-2.133 1.067 25.6 34.133 90.667 62.933 43.733-45.867 97.067-78.933 140.8-81.067 37.333 1.067 82.133 26.667 121.6 62.933 40.533-68.267 96-128 157.867-128 59.733 0 115.2 50.133 156.8 114.133 36.267-29.867 75.733-49.067 107.733-50.133 43.733 2.133 97.067 35.2 140.8 81.067 65.067-27.733 92.8-62.933 91.733-61.867 65.067-69.333 18.133-145.067-14.933-177.067z" />
<glyph unicode="&#xe932;" glyph-name="os-filter-seperator" horiz-adv-x="50" d="M0 960h50.133v-1024h-50.133v1024z" />
<glyph unicode="&#xe933;" glyph-name="os-filter-twitter" horiz-adv-x="1270" d="M11.733 56.533c-22.4 13.867-10.667 49.067 16 45.867 18.133-2.133 37.333-3.2 56.533-3.2 83.2 0 162.133 20.267 229.333 56.533l11.733 6.4-17.067 4.267c-81.067 27.733-145.067 90.667-170.667 170.667-4.267 13.867 3.2 27.733 16 32l11.733 1.067-22.4 14.933c-58.667 49.067-96 121.6-96 202.667v3.2c0 19.2 20.267 30.933 37.333 22.4l16-7.467c-33.067 44.8-52.267 98.133-52.267 156.8 2.133 48 16 93.867 39.467 132.267 9.6 14.933 29.867 16 41.6 3.2 103.467-123.733 251.733-210.133 421.333-235.733l42.667-4.267-1.067 26.667c0 148.267 123.733 266.667 274.133 266.667 59.733 0 114.133-18.133 158.933-49.067l29.867-25.6 28.8 6.4c39.467 10.667 76.8 26.667 110.933 45.867 20.267 11.733 43.733-7.467 37.333-29.867-9.6-29.867-22.4-58.667-40.533-84.267l-13.867-14.933 67.2 2.133c21.333 1.067 34.133-22.4 22.4-39.467-28.8-40.533-64-56.533-99.2-74.667l-24.533-14.933v-17.067c0-330.667-259.2-711.467-734.933-711.467-147.2 1.067-282.667 42.667-396.8 112zM1091.2 657.067c0 9.6 0 20.267-1.067 29.867 0 8.533 3.2 17.067 10.667 22.4 27.733 19.2 50.133 29.867 71.467 40.533l-65.067-2.133c-26.667-1.067-36.267 34.133-13.867 46.933s39.467 29.867 54.4 51.2l6.4 10.667-14.933-6.4c-27.733-10.667-56.533-18.133-86.4-24.533-8.533-2.133-17.067 1.067-23.467 7.467-40.533 41.6-99.2 68.267-164.267 68.267-123.733 0-222.933-97.067-222.933-215.467 0-17.067 2.133-33.067 5.333-49.067 4.267-16-9.6-32-25.6-30.933-187.733 9.6-356.267 86.4-481.067 208l-24.533 26.667-7.467-20.267c-5.333-18.133-7.467-37.333-7.467-57.6 0-74.667 39.467-141.867 99.2-180.267 21.333-13.867 10.667-46.933-14.933-45.867-22.4 1.067-44.8 4.267-65.067 9.6l-18.133 5.333c16-87.467 86.4-156.8 177.067-173.867 26.667-5.333 27.733-42.667 1.067-49.067-23.467-6.4-46.933-9.6-72.533-9.6l-6.4 1.067 13.867-22.4c40.533-56.533 105.6-92.8 180.267-93.867 23.467 0 34.133-30.933 14.933-44.8-68.267-51.2-148.267-87.467-234.667-101.333l-43.733-5.333 35.2-13.867c74.667-27.733 156.8-42.667 241.067-42.667 440.533 0 682.667 354.133 682.667 661.333z" />
<glyph unicode="&#xe934;" glyph-name="os-form-check" horiz-adv-x="1271" d="M424.533 176l-292.267 301.867-129.067-116.267 421.333-418.133 843.733 892.8-129.067 116.267-714.667-776.533z" />
<glyph unicode="&#xe935;" glyph-name="os-form-drag" horiz-adv-x="1067" d="M597.333 770.133v-258.133h256v128l192-192-192-192v130.133h-256v-258.133h128l-192-192-192 192h128v258.133h-256v-130.133l-192 192 192 192v-128h256v258.133h-125.867l189.867 189.867 189.867-189.867c0 0-125.867 0-125.867 0z" />
<glyph unicode="&#xe936;" glyph-name="os-form-error" horiz-adv-x="1309" d="M653.867 193.067c-26.667 0-48-23.467-48-53.333s21.333-53.333 48-53.333c26.667 0 48 23.467 48 53.333s-21.333 53.333-48 53.333zM653.867 954.667l-650.667-1013.333h1301.333l-650.667 1013.333zM653.867 810.667l483.2-772.267h-965.333l482.133 772.267zM646.4 245.333h14.933c22.4 0 40.533 19.2 40.533 42.667v286.933c0 23.467-18.133 42.667-40.533 42.667h-14.933c-22.4 0-40.533-19.2-40.533-42.667v-285.867c1.067-24.533 19.2-43.733 40.533-43.733z" />
<glyph unicode="&#xe937;" glyph-name="os-form-image" horiz-adv-x="1350" d="M1233.067-58.667h-1115.733c-65.067 0-117.333 53.333-117.333 119.467v774.4c0 66.133 52.267 119.467 117.333 119.467h1115.733c65.067 0 117.333-53.333 117.333-119.467v-774.4c0-66.133-52.267-119.467-117.333-119.467zM1291.733 835.2c0 33.067-26.667 59.733-58.667 59.733h-1115.733c-32 0-58.667-26.667-58.667-59.733v-774.4c0-33.067 26.667-59.733 58.667-59.733h1115.733c32 0 58.667 26.667 58.667 59.733v774.4zM1184 129.067l-185.6 188.8-106.667-107.733 98.133-99.2c10.667-11.733 10.667-29.867 0-41.6-11.733-11.733-29.867-11.733-40.533 0l-420.267 426.667-361.6-366.933c-10.667-11.733-28.8-11.733-40.533 0-10.667 11.733-10.667 29.867 0 41.6l378.667 384c1.067 1.067 1.067 3.2 3.2 4.267 5.333 6.4 13.867 8.533 21.333 8.533s14.933-2.133 21.333-8.533c1.067-1.067 2.133-3.2 3.2-4.267l298.667-304 122.667 124.8c1.067 1.067 1.067 3.2 3.2 4.267 5.333 5.333 13.867 8.533 21.333 8.533s14.933-2.133 21.333-8.533c1.067-1.067 2.133-3.2 3.2-4.267l202.667-205.867c10.667-11.733 10.667-29.867 0-41.6-13.867-10.667-32-10.667-43.733 1.067zM822.4 597.333c-65.067 0-117.333 53.333-117.333 119.467s52.267 119.467 117.333 119.467c65.067 0 117.333-53.333 117.333-119.467s-53.333-119.467-117.333-119.467zM822.4 775.467c-32 0-58.667-26.667-58.667-59.733s26.667-59.733 58.667-59.733 58.667 26.667 58.667 59.733c0 33.067-26.667 59.733-58.667 59.733z" />
<glyph unicode="&#xe938;" glyph-name="os-form-success" horiz-adv-x="1047" d="M523.733 955.733c-280.533 0-507.733-227.2-507.733-507.733s227.2-507.733 507.733-507.733c280.533 0 507.733 227.2 507.733 507.733s-227.2 507.733-507.733 507.733zM523.733 37.333c-227.2 0-410.667 183.467-410.667 410.667s183.467 410.667 410.667 410.667c227.2 0 410.667-183.467 410.667-410.667s-183.467-410.667-410.667-410.667zM746.667 599.467l-279.467-266.667-106.667 102.4-67.2-67.2 174.933-166.4 346.667 330.667-68.267 67.2z" />
<glyph unicode="&#xe939;" glyph-name="os-form-video" horiz-adv-x="1067" d="M948.267 960h-829.867c-53.333 0-97.067-43.733-97.067-97.067v-830.933c0-53.333 43.733-97.067 97.067-97.067h830.933c53.333 0 97.067 43.733 97.067 97.067v830.933c-1.067 53.333-44.8 97.067-98.133 97.067zM1026.133 48c0-51.2-41.6-92.8-92.8-92.8h-800c-51.2 0-92.8 41.6-92.8 92.8v798.933c0 51.2 41.6 92.8 92.8 92.8h798.933c51.2 0 92.8-41.6 92.8-92.8v-798.933zM426.667 221.867l280.533 226.133-280.533 226.133v-452.267z" />
<glyph unicode="&#xe93a;" glyph-name="os-hp-engagement" horiz-adv-x="1324" d="M1324.23 605.085c0-11.795-4.289-24.662-13.939-33.24l-60.046-60.046c-8.578-8.578-20.373-13.939-33.24-13.939-9.65 0-18.228 2.145-25.734 7.506v0l-161.91-161.91-274.496 275.569-81.491-81.491v-1.072c0 0 0 0-1.072 0 0 0 0-1.072-1.072-1.072l-13.939-52.54c-2.145-6.434-4.289-12.867-7.506-18.228 0 0-1.072 0-1.072 1.072-19.301-37.529-51.468-63.263-86.852-67.552-12.867-2.145-47.179 1.072-61.118 21.445-5.361 7.506-7.506 18.228-6.434 32.168 2.145 16.084 5.361 31.095 6.434 33.24l1.072 4.289c0 0 1.072 0 1.072 0 0 1.072 1.072 1.072 1.072 2.145l32.168 121.164c0 1.072 0 1.072 0 2.145 0 2.145 0 3.217 1.072 5.361v1.072l1.072 1.072c1.072 1.072 2.145 2.145 3.217 3.217l105.081 105.081-6.434 6.434-20.373 21.445c-5.361 5.361-16.084 8.578-23.59 8.578l-38.601-7.506-64.335-5.361-52.54 53.613-287.363-286.291c0 0 0 0 1.072-1.072l49.324-49.324c0 0-1.072-1.072-1.072-1.072 1.072-1.072 1.072-2.145 2.145-2.145 0 0 0 0 0 0l93.286-93.286c10.723 5.361 22.517 8.578 34.312 8.578 18.228 0 36.457-6.434 49.324-19.301l11.795-11.795c15.012-16.084 22.517-37.529 19.301-57.902 3.217 1.072 7.506 1.072 11.795 1.072 18.228 0 36.457-7.506 49.324-19.301l9.65-9.65c8.578-8.578 13.939-19.301 17.156-31.095 1.072-3.217 2.145-7.506 2.145-10.723v-1.072c1.072-7.506 1.072-15.012 0-23.59 22.517 4.289 45.035-1.072 62.191-18.228l9.65-9.65c17.156-17.156 24.662-41.818 18.228-64.335 17.156 3.217 35.384 0 50.396-9.65 0 0 1.072 0 1.072-1.072 3.217-2.145 6.434-5.361 9.65-8.578l9.65-9.65c3.217-3.217 5.361-6.434 7.506-9.65 0-1.072 1.072-1.072 1.072-2.145 2.145-2.145 3.217-5.361 4.289-8.578 0-1.072 1.072-1.072 1.072-2.145 1.072-3.217 2.145-6.434 3.217-9.65 0-1.072 0-1.072 1.072-2.145 1.072-3.217 1.072-6.434 1.072-10.723 0-1.072 0-1.072 0-2.145 0-3.217 0-6.434 0-9.65s-1.072-5.361-1.072-8.578c0-1.072 0-1.072 0-2.145-1.072-3.217-2.145-6.434-3.217-8.578 0 0 0 0 0 0l11.795-11.795c9.65-8.578 20.373-12.867 33.24-12.867 11.795 0 22.517 4.289 31.095 12.867l9.65 9.65c8.578 7.506 12.867 19.301 12.867 32.168 0 7.506-2.145 15.012-5.361 21.445l-71.841 71.841c2.145 3.217 5.361 5.361 7.506 7.506-2.145-2.145-5.361-5.361-7.506-7.506l-135.104 135.104 1.072 1.072-1.072 1.072 16.084 16.084 135.104-135.104c0 0 0 0 0 0l62.191-63.263c3.217-3.217 5.361-5.361 7.506-8.578l3.217-3.217c7.506-8.578 19.301-12.867 32.168-12.867 11.795 0 23.59 4.289 32.168 12.867l9.65 9.65c8.578 7.506 12.867 19.301 12.867 32.168s-4.289 23.59-12.867 32.168h1.072l-206.945 210.161 16.084 16.084 216.595-216.595c17.156-17.156 47.179-17.156 65.407 0l9.65 9.65c17.156 17.156 17.156 47.179 0 65.407l-28.951 30.023-8.578 7.506-180.138 179.066 16.084 16.084 1.072-1.072 1.072 1.072 25.734-25.734v-1.072l204.8-204.8c8.578-8.578 19.301-12.867 32.168-12.867s24.662 4.289 32.168 12.867l9.65 9.65c17.156 17.156 17.156 47.179 0 65.407l-40.746 39.673 17.156 17.156 39.673-39.673c27.879-27.879 27.879-71.841 0-97.575l-9.65-9.65c-10.723-10.723-28.951-18.228-47.179-18.228-9.65 0-18.228 2.145-26.806 5.361 1.072-19.301-5.361-39.673-20.373-53.613l-9.65-9.65c-12.867-11.795-31.095-18.228-48.251-18.228-6.434 0-12.867 1.072-20.373 3.217 0 0 0 0 0 0v0c0 0 0 0 0 0s0 0 0 0v0c0-1.072 0-4.289 0-7.506 0-18.228-6.434-36.457-19.301-49.324l-9.65-9.65c-12.867-11.795-31.095-19.301-49.324-19.301-6.434 0-12.867 2.145-19.301 3.217 0-1.072 0-2.145-1.072-2.145 0-18.228-6.434-36.457-19.301-49.324l-9.65-9.65c-11.795-11.795-30.023-19.301-47.179-19.301-18.228 0-37.529 7.506-50.396 21.445l-6.434 6.434c-1.072-1.072-1.072-2.145-2.145-3.217l-23.59-23.59c-12.867-11.795-31.095-19.301-49.324-19.301s-36.457 6.434-49.324 19.301l-3.217 3.217-8.578 1.072c-11.795 12.867-19.301 31.095-19.301 49.324 0 5.361 1.072 9.65 1.072 15.012-4.289-1.072-7.506-1.072-11.795-1.072-18.228 0-36.457 6.434-49.324 19.301l-4.289 3.217-7.506 7.506c-11.795 12.867-19.301 31.095-19.301 49.324 0 5.361 1.072 9.65 1.072 15.012-4.289-1.072-9.65-1.072-15.012-1.072-18.228 0-36.457 7.506-49.324 19.301l-9.65 9.65c-12.867 12.867-19.301 31.095-19.301 49.324 0 4.289 0 7.506 1.072 10.723-4.289-1.072-8.578-1.072-12.867-1.072-18.228 0-36.457 6.434-49.324 19.301l-9.65 9.65c-27.879 26.806-27.879 70.769 0 97.575l19.301 19.301-93.286 95.43c0 0 1.072 1.072 1.072 1.072-3.217 1.072-5.361 4.289-6.434 7.506l-47.179 46.107c-7.506-5.361-16.084-7.506-25.734-7.506-11.795 0-24.662 5.361-33.24 13.939l-60.046 60.046c-9.65 8.578-13.939 21.445-13.939 33.24s5.361 24.662 13.939 33.24l176.921 176.921c0 0 0 0 0-1.072l129.742 129.742c8.578 9.65 19.301 13.939 33.24 13.939 11.795 0 24.662-5.361 33.24-13.939l60.046-60.046c16.084-16.084 18.228-41.818 6.434-60.046v0l45.035-45.035 91.141 7.506c13.939 1.072 32.168-5.361 41.818-15.012l26.806-26.806 27.879 27.879c9.65 9.65 27.879 16.084 41.818 15.012l92.214-7.506 46.107 46.107c-12.867 18.228-10.723 42.89 6.434 60.046l60.046 60.046c8.578 8.578 20.373 13.939 33.24 13.939 0 0 0 0 1.072 0 0 0 0 0 0 0s1.072 0 1.072 0c11.795 0 22.517-4.289 31.095-13.939l131.887-132.959c1.072-1.072 2.145-2.145 3.217-3.217l171.56-171.56c9.65-8.578 15.012-20.373 15.012-33.24zM718.408 144.017c-2.145-3.217-4.289-5.361-7.506-8.578 3.217 2.145 6.434 5.361 7.506 8.578v0zM553.282-18.965l8.578-8.578c7.506-8.578 19.301-12.867 32.168-12.867s23.59 4.289 32.168 12.867l23.59 23.59c2.145 1.072 3.217 2.145 4.289 4.289 0 0 0 0 0 0 1.072 2.145 4.289 6.434 5.361 8.578s1.072 3.217 2.145 5.361 1.072 5.361 2.145 8.578c0 1.072 0 2.145 0 3.217 0 3.217 0 5.361-1.072 8.578 0 1.072 0 2.145 0 3.217-1.072 3.217-2.145 6.434-3.217 9.65 0 1.072-1.072 2.145-1.072 2.145-2.145 3.217-4.289 6.434-6.434 9.65 0 0 0 0 0 0l-9.65 9.65c0 0 0 0 0 0-3.217 3.217-7.506 6.434-11.795 8.578 0 0-1.072 1.072-1.072 1.072-1.072 0-2.145 1.072-2.145 1.072-5.361 2.145-10.723 3.217-16.084 3.217-9.65 0-19.301-3.217-27.879-9.65 0-1.072-1.072-1.072-2.145-2.145l-23.59-23.59c0 0-1.072-1.072-1.072-1.072l-2.145-2.145c-8.578-7.506-12.867-19.301-12.867-32.168s3.217-22.517 11.795-31.095zM462.14 76.465l8.578-8.578c0 0 0 0 0 0l3.217-4.289c7.506-8.578 19.301-12.867 32.168-12.867 11.795 0 22.517 4.289 31.095 12.867 0 0 0 0 0 0l23.59 23.59 3.217 4.289c13.939 18.228 12.867 45.035-3.217 62.191l-9.65 9.65c-16.084 16.084-43.962 17.156-61.118 3.217l-9.65-5.361-5.361-5.361-11.795-15.012c-8.578-7.506-12.867-19.301-12.867-32.168s2.145-22.517 11.795-32.168zM369.927 169.751l9.65-9.65c8.578-8.578 19.301-12.867 32.168-12.867 11.795 0 24.662 4.289 32.168 12.867l23.59 23.59c1.072 1.072 2.145 2.145 3.217 3.217 7.506 9.65 10.723 21.445 9.65 33.24v1.072c-1.072 8.578-5.361 17.156-11.795 24.662l-9.65 9.65c-17.156 16.084-41.818 17.156-60.046 4.289-1.072-2.145-2.145-3.217-4.289-5.361l-23.59-23.59c-2.145-2.145-4.289-3.217-6.434-5.361-4.289-7.506-6.434-15.012-6.434-23.59-1.072-12.867 3.217-24.662 11.795-32.168zM278.785 319.866c-17.156-17.156-17.156-47.179 0-65.407l3.217-2.145 5.361-5.361c7.506-8.578 19.301-12.867 32.168-12.867 11.795 0 21.445 4.289 30.023 11.795 1.072 1.072 2.145 2.145 3.217 3.217l23.59 23.59c1.072 1.072 1.072 1.072 2.145 2.145 13.939 17.156 12.867 43.962-3.217 60.046l-8.578 8.578c-16.084 16.084-41.818 17.156-60.046 3.217v0-1.072c-1.072-1.072-2.145-2.145-3.217-3.217l-24.662-22.517zM435.334 867.786l-60.046 60.046c-4.289 4.289-9.65 6.434-16.084 6.434s-11.795-2.145-16.084-6.434l-132.959-131.887c0 0 0 0 0 1.072l-176.921-175.849c-4.289-4.289-6.434-9.65-6.434-16.084s2.145-11.795 6.434-16.084l60.046-60.046c4.289-4.289 9.65-6.434 16.084-6.434s11.795 2.145 16.084 6.434h3.217c0 0 0 0 0 0l305.592 305.592c9.65 8.578 9.65 24.662 1.072 33.24zM837.428 759.489c-3.217-3.217-7.506-4.289-8.578-4.289l-99.719 8.578c-6.434 0-17.156-3.217-23.59-8.578l-26.806-26.806-121.164-123.309c0 0 1.072 0 1.072-1.072l-33.24-124.381c0 0 0 0-1.072 0 0-1.072-1.072-2.145-1.072-3.217v-2.145c0 0-4.289-12.867-5.361-28.951-1.072-7.506 0-12.867 2.145-16.084 6.434-8.578 28.951-11.795 39.673-10.723 28.951 4.289 54.685 25.734 69.696 57.902 0 0 1.072 0 1.072 0 2.145 4.289 4.289 8.578 5.361 13.939l15.012 57.902c0 0 1.072 0 1.072-1.072 1.072 3.217 4.289 5.361 6.434 6.434l96.503 96.503 275.569-275.569 143.682 145.826-287.363 288.436-49.324-49.324zM1293.135 621.169l-307.736 307.736c-4.289 4.289-9.65 6.434-16.084 6.434s-11.795-2.145-16.084-6.434l-61.118-60.046c-8.578-8.578-8.578-24.662 0-33.24l1.072-1.072c0 0 0 0 1.072 1.072l305.592-308.808c4.289-4.289 9.65-6.434 16.084-6.434s11.795 2.145 16.084 6.434l60.046 60.046c4.289 4.289 6.434 9.65 6.434 16.084s-1.072 13.939-5.361 18.228z" />
<glyph unicode="&#xe93b;" glyph-name="os-hp-insights" d="M977.067 568.533c9.6 14.933 17.067 32 22.4 49.067 36.267 119.467-33.067 247.467-154.667 283.733-122.667 37.333-250.667-29.867-288-150.4-2.133-8.533-4.267-17.067-6.4-24.533-80 38.4-173.867 48-265.6 20.267-193.067-59.733-304-263.467-245.333-456.533 8.533-28.8 20.267-55.467 35.2-80l-74.667-226.133c26.667 38.4 82.133 70.4 149.333 80 48 6.4 92.8 1.067 126.933-13.867 68.267-21.333 144-23.467 217.6-1.067 179.2 54.4 285.867 232.533 257.067 410.667 33.067-4.267 67.2-1.067 98.133 8.533 22.4 8.533 50.133 12.8 80 8.533 42.667-5.333 77.867-25.6 93.867-49.067l-45.867 140.8zM482.133 99.2c-64-19.2-130.133-22.4-188.8-4.267-29.867 12.8-67.2 17.067-108.8 17.067-20.267 0-92.8-6.4-115.2-29.867 0 0 36.267 94.933 54.4 140.8-7.467 14.933-26.667 59.733-34.133 84.267-49.067 166.4 44.8 343.467 212.267 394.667s343.467-42.667 393.6-209.067c49.067-165.333-46.933-342.4-213.333-393.6zM954.667 507.733c-13.867 18.133-44.8 17.067-54.4 17.067s-44.8-1.067-61.867-8.533c-30.933-10.667-65.067-12.8-99.2-5.333-25.6 78.933-75.733 144-139.733 187.733 1.067 11.733 2.133 22.4 5.333 34.133 25.6 94.933 123.733 151.467 219.733 124.8s152.533-124.8 126.933-219.733c-4.267-13.867-19.2-38.4-25.6-50.133l28.8-80z" />
<glyph unicode="&#xe93c;" glyph-name="os-hp-revenue" horiz-adv-x="1067" d="M533.333 956.8c-281.6 0-508.8-228.267-508.8-508.8s228.267-508.8 508.8-508.8 508.8 228.267 508.8 508.8-227.2 508.8-508.8 508.8zM533.333-30.933c-264.533 0-478.933 214.4-478.933 478.933s214.4 478.933 478.933 478.933 478.933-214.4 478.933-478.933-214.4-478.933-478.933-478.933zM549.333 464v248.533c42.667 0 77.867-8.533 106.667-24.533v42.667c-29.867 11.733-65.067 18.133-106.667 18.133v73.6h-32v-74.667c-41.6-6.4-73.6-23.467-98.133-51.2s-36.267-59.733-36.267-97.067c0-30.933 8.533-57.6 26.667-80s53.333-49.067 107.733-80v-245.333c-48 0-92.8 13.867-133.333 40.533v-41.6c38.4-21.333 82.133-33.067 133.333-33.067v-85.333h32v87.467c42.667 6.4 74.667 22.4 98.133 48s35.2 57.6 35.2 96c0 30.933-9.6 58.667-28.8 82.133-19.2 22.4-54.4 48-104.533 75.733zM517.333 482.133c-38.4 21.333-62.933 41.6-75.733 58.667-12.8 18.133-19.2 38.4-19.2 62.933 0 28.8 8.533 52.267 25.6 71.467s39.467 30.933 69.333 36.267v-229.333zM619.733 231.467c-16-18.133-39.467-29.867-70.4-36.267v225.067c36.267-21.333 60.8-40.533 74.667-57.6 12.8-17.067 20.267-38.4 20.267-64-1.067-26.667-8.533-49.067-24.533-67.2z" />
<glyph unicode="&#xe93d;" glyph-name="os-hp-traffic" horiz-adv-x="1201" d="M30.023 956.783h-30.023v-1020.783h1200.921v30.023h-1170.898v990.76zM135.104-3.954c41.818 0 75.058 33.24 75.058 75.058 0 16.084-5.361 31.095-12.867 42.89l244.473 174.777c7.506-7.506 17.156-13.939 28.951-18.228 39.673-13.939 82.563 7.506 96.503 46.107 4.289 11.795 5.361 24.662 3.217 36.457l275.569 83.636c1.072-2.145 2.145-4.289 3.217-6.434 17.156-37.529 62.191-54.685 99.719-37.529s52.54 62.191 35.384 99.719c-5.361 10.723-12.867 20.373-21.445 27.879l143.682 259.485c6.434-2.145 12.867-3.217 20.373-3.217 41.818 0 75.058 33.24 75.058 75.058s-33.24 75.058-75.058 75.058c-41.818 0-75.058-33.24-75.058-75.058 0-23.59 10.723-45.035 27.879-57.902l-143.682-259.485c-16.084 4.289-34.312 4.289-51.468-4.289-25.734-11.795-40.746-36.457-42.89-63.263l-282.002-84.708c-8.578 13.939-21.445 24.662-38.601 31.095-39.673 13.939-82.563-7.506-96.503-46.107-6.434-17.156-5.361-36.457 0-52.54l-249.835-179.066c-11.795 7.506-24.662 11.795-39.673 11.795-41.818 0-75.058-33.24-75.058-75.058 0-42.89 33.24-76.13 75.058-76.13zM1125.864 896.737c24.662 0 45.035-20.373 45.035-45.035s-20.373-45.035-45.035-45.035c-24.662 0-45.035 20.373-45.035 45.035s19.301 45.035 45.035 45.035zM896.402 502.149c22.517 10.723 49.324 0 60.046-22.517s1.072-49.324-21.445-60.046c-22.517-10.723-49.324 0-60.046 22.517-10.723 23.59-1.072 50.396 21.445 60.046zM452.49 356.323c8.578 23.59 34.312 36.457 56.829 27.879 23.59-8.578 35.384-33.24 26.806-56.829s-34.312-36.457-56.829-27.879c-22.517 7.506-34.312 33.24-26.806 56.829zM135.104 116.138c24.662 0 45.035-20.373 45.035-45.035s-20.373-45.035-45.035-45.035c-24.662 0-45.035 20.373-45.035 45.035s19.301 45.035 45.035 45.035z" />
<glyph unicode="&#xe93e;" glyph-name="os-layout-h2h" horiz-adv-x="1067" d="M1021.867-67.2c16 0 28.8 12.8 28.8 27.733v972.8c0 16-12.8 27.733-28.8 27.733h-404.267c-16 0-28.8-12.8-28.8-27.733v-972.8c0-16 12.8-27.733 28.8-27.733h404.267zM449.067-67.2c16 0 28.8 12.8 28.8 27.733v972.8c0 16-12.8 27.733-28.8 27.733h-404.267c-16 0-28.8-12.8-28.8-27.733v-972.8c0-16 12.8-27.733 28.8-27.733h404.267z" />
<glyph unicode="&#xe93f;" glyph-name="os-layout-mc" horiz-adv-x="1067" d="M1032.533 958.933c8.533-5.333 14.933-13.867 14.933-24.533v-170.667c0-3.2-1.067-6.4-2.133-9.6h-1024c-1.067 3.2-2.133 6.4-2.133 9.6v170.667c0 10.667 6.4 20.267 14.933 24.533h998.4zM1044.267 548.267c2.133-4.267 3.2-8.533 3.2-12.8v-170.667c0-8.533-4.267-17.067-10.667-22.4h-1005.867c-6.4 5.333-10.667 12.8-10.667 22.4v170.667c0 4.267 1.067 8.533 3.2 12.8h1020.8zM1047.467 136.533c0 0 0 0 0 0v-171.733c0-16-12.8-28.8-27.733-28.8h-971.733c-16 0-27.733 12.8-27.733 28.8v170.667c0 0 0 0 0 0h1027.2z" />
<glyph unicode="&#xe940;" glyph-name="os-layout-thumbnails" horiz-adv-x="1067" d="M1019.733-64h-692.267v200.533h720c0 0 0 0 0 0v-170.667c0-17.067-12.8-29.867-27.733-29.867zM327.467 342.4v205.867h716.8c2.133-4.267 3.2-8.533 3.2-12.8v-170.667c0-8.533-4.267-17.067-10.667-22.4h-709.333zM327.467 754.133v205.867h705.067c8.533-5.333 14.933-13.867 14.933-24.533v-170.667c0-3.2-1.067-6.4-2.133-9.6h-717.867zM225.067 754.133h-203.733c-1.067 3.2-2.133 6.4-2.133 9.6v170.667c0 10.667 6.4 20.267 14.933 24.533h190.933v-204.8zM225.067 548.267v-205.867h-195.2c-6.4 5.333-10.667 12.8-10.667 22.4v170.667c0 4.267 1.067 8.533 3.2 12.8h202.667zM225.067 136.533v-200.533h-178.133c-16 0-27.733 12.8-27.733 28.8v170.667c0 0 0 0 0 0h205.867z" />
<glyph unicode="&#xe941;" glyph-name="os-menu-content" horiz-adv-x="1067" d="M142.933 955.733c-65.067 0-117.333-52.267-117.333-117.333s52.267-117.333 117.333-117.333c65.067 0 117.333 52.267 117.333 117.333 1.067 65.067-52.267 117.333-117.333 117.333zM452.267 797.867h554.667c19.2 0 34.133 18.133 34.133 40.533s-14.933 40.533-34.133 40.533h-554.667c-19.2 0-34.133-18.133-34.133-40.533-1.067-22.4 14.933-40.533 34.133-40.533zM142.933 565.333c-65.067 0-117.333-52.267-117.333-117.333s52.267-117.333 117.333-117.333c65.067 0 117.333 52.267 117.333 117.333s-52.267 117.333-117.333 117.333zM1006.933 488.533h-554.667c-19.2 0-34.133-18.133-34.133-40.533s14.933-40.533 34.133-40.533h554.667c19.2 0 34.133 18.133 34.133 40.533s-16 40.533-34.133 40.533zM142.933 176c-65.067 0-117.333-52.267-117.333-117.333s52.267-117.333 117.333-117.333c65.067 0 117.333 52.267 117.333 117.333 1.067 64-52.267 117.333-117.333 117.333zM1006.933 98.133h-554.667c-19.2 0-34.133-18.133-34.133-40.533s14.933-40.533 34.133-40.533h554.667c19.2 0 34.133 18.133 34.133 40.533s-16 40.533-34.133 40.533z" />
<glyph unicode="&#xe942;" glyph-name="os-menu-placements" horiz-adv-x="1067" d="M978.133-52.267h-348.8c0 0-540.8 0-540.8 0-42.667 0-77.867 35.2-77.867 76.8v848c0 42.667 35.2 76.8 77.867 76.8h889.6c42.667 0 77.867-35.2 77.867-76.8v-76.8l1.067-385.067v-386.133c-1.067-42.667-36.267-76.8-78.933-76.8zM629.333 718.933v155.733h-466.133c-42.667 0-77.867-35.2-77.867-77.867v-697.6c0-42.667 35.2-77.867 77.867-77.867 8.533 0 472.533 0 465.067 0l1.067 541.867v155.733zM981.333 796.8c0 42.667-35.2 77.867-77.867 77.867h-198.4v-234.667h277.333v156.8zM981.333 565.333h-277.333v-544h199.467c42.667 0 77.867 35.2 77.867 77.867v466.133z" />
<glyph unicode="&#xe943;" glyph-name="os-menu-reports" horiz-adv-x="1067" d="M494.933 638.933h76.8v-535.467h76.8v612.267h-230.4v-612.267h76.8v535.467zM801.067 869.333h76.8v-765.867h75.733v841.6h-230.4v-841.6h77.867v765.867zM188.8 486.4h76.8v-382.933h75.733v458.667h-227.2v-458.667h75.733v382.933zM877.867 27.733v0l-76.8-1.067v1.067h-229.333v-1.067h-76.8v1.067h-229.333v-1.067h-76.8v1.067h-153.6v-75.733h995.2v75.733h-152.533z" />
<glyph unicode="&#xe944;" glyph-name="os-menu-revenue" horiz-adv-x="1067" d="M533.333 954.667c-279.467 0-505.6-226.133-505.6-505.6s226.133-505.6 505.6-505.6c279.467 0 505.6 226.133 505.6 505.6 0 278.4-226.133 505.6-505.6 505.6zM533.333 20.267c-235.733 0-427.733 192-427.733 427.733s192 427.733 427.733 427.733c235.733 0 427.733-192 427.733-427.733s-192-427.733-427.733-427.733zM653.867 481.067c-22.4 8.533-61.867 19.2-115.2 32-34.133 7.467-44.8 13.867-50.133 19.2-7.467 7.467-11.733 17.067-11.733 27.733 0 16 7.467 42.667 59.733 42.667 26.667 0 48-7.467 64-22.4 5.333-5.333 9.6-10.667 13.867-17.067v0l1.067-1.067c2.133-3.2 5.333-5.333 9.6-5.333h83.2c5.333 0 10.667 4.267 10.667 10.667 0 2.133-1.067 7.467-3.2 11.733-22.4 57.6-65.067 90.667-132.267 102.4v48c0 8.533-7.467 16-16 16h-65.067c-8.533 0-16-7.467-16-16v-50.133c-39.467-8.533-70.4-24.533-90.667-48-22.4-26.667-33.067-56.533-33.067-91.733 0-30.933 9.6-57.6 29.867-81.067s70.4-43.733 150.4-60.8c22.4-4.267 38.4-10.667 49.067-17.067 11.733-8.533 18.133-20.267 18.133-34.133 0-19.2-11.733-42.667-66.133-42.667-18.133 0-34.133 3.2-48 8.533-19.2 8.533-34.133 22.4-43.733 41.6l-1.067 1.067v1.067c-2.133 3.2-5.333 5.333-9.6 5.333h-91.733c-5.333 0-10.667-4.267-10.667-10.667 0-1.067 1.067-5.333 1.067-5.333 22.4-71.467 69.333-112 145.067-124.8v-50.133c0-8.533 7.467-16 16-16h65.067c8.533 0 16 7.467 16 16v50.133c43.733 7.467 77.867 22.4 103.467 46.933 27.733 26.667 41.6 58.667 41.6 98.133 0 27.733-7.467 52.267-21.333 72.533-13.867 19.2-30.933 34.133-52.267 42.667z" />
<glyph unicode="&#xe945;" glyph-name="os-pinterest" horiz-adv-x="814" d="M430.933 948.267c-278.4 0-418.133-195.2-418.133-358.4 0-99.2 38.4-186.667 119.467-219.733 13.867-5.333 25.6 0 28.8 13.867 3.2 9.6 9.6 35.2 11.733 45.867 4.267 14.933 2.133 19.2-8.533 32-23.467 27.733-38.4 62.933-38.4 113.067 0 145.067 110.933 275.2 288 275.2 156.8 0 243.2-93.867 243.2-219.733 0-165.333-74.667-305.067-185.6-305.067-60.8 0-106.667 50.133-92.8 110.933 17.067 72.533 51.2 151.467 51.2 203.733 0 46.933-25.6 86.4-78.933 86.4-62.933 0-113.067-64-113.067-148.267 0-54.4 19.2-90.667 19.2-90.667s-64-266.667-75.733-312.533c-22.4-92.8-3.2-206.933-2.133-218.667 1.067-6.4 9.6-8.533 13.867-3.2 5.333 7.467 80 98.133 105.6 187.733 7.467 25.6 41.6 157.867 41.6 157.867 20.267-38.4 80-71.467 142.933-71.467 187.733 0 315.733 168.533 315.733 393.6 2.133 168.533-145.067 327.467-368 327.467z" />
<glyph unicode="&#xe946;" glyph-name="os-poll-client" d="M529.067 660.267c-129.067 0-150.4-71.467-150.4-162.133 0-48 69.333-204.8 150.4-204.8 78.933 0 150.4 157.867 150.4 204.8-1.067 90.667-22.4 162.133-150.4 162.133zM529.067 343.467c-54.4 0-100.267 114.133-100.267 149.333 0 66.133 13.867 117.333 100.267 117.333 85.333 0 100.267-52.267 100.267-117.333-1.067-34.133-48-149.333-100.267-149.333zM512 949.333c-276.267 0-501.333-225.067-501.333-501.333s224-501.333 501.333-501.333c276.267 0 501.333 224 501.333 501.333 0 276.267-225.067 501.333-501.333 501.333zM512-3.2c-118.4 0-225.067 45.867-306.133 119.467 44.8 67.2 110.933 118.4 188.8 145.067 43.733-45.867 92.8-80 134.4-80 39.467 0 85.333 29.867 125.867 70.4 67.2-27.733 123.733-75.733 163.2-134.4-81.067-74.667-187.733-120.533-306.133-120.533zM852.267 152.533c-48 77.867-121.6 137.6-209.067 167.467-37.333-42.667-81.067-74.667-118.4-74.667-38.4 0-84.267 36.267-123.733 82.133-97.067-28.8-178.133-91.733-230.4-174.933-68.267 80-109.867 182.4-109.867 295.467 0 248.533 202.667 451.2 451.2 451.2s451.2-201.6 451.2-451.2c0-113.067-41.6-216.533-110.933-295.467z" />
<glyph unicode="&#xe947;" glyph-name="os-poll-voter" d="M855.149 361.94c-11.983 11.983-62.094 67.54-181.923 108.936-51.2-56.647-110.026-101.311-161.226-104.579-51.2 2.179-110.026 46.843-161.226 104.579-119.83-41.396-169.94-96.953-181.923-108.936-127.455-129.634-54.468-267.983 11.983-320.272 46.843-37.038 133.991-84.97 331.166-88.238 196.085 3.268 284.323 51.2 331.166 88.238 66.451 52.289 139.438 190.638 11.983 320.272zM787.609 96.136c-40.306-34.86-137.26-70.809-275.609-74.077-138.349 3.268-235.302 39.217-275.609 74.077-42.485 37.038-103.489 129.634-17.43 215.694-1.089-1.089 33.77 40.306 115.472 74.077 55.557-55.557 123.098-95.864 177.566-98.043 55.557 2.179 122.009 42.485 177.566 98.043 81.702-33.77 116.562-75.166 115.472-74.077 84.97-86.060 25.055-178.655-17.43-215.694zM513.089 422.945c111.115 0 210.247 199.353 210.247 296.306 0 126.366-29.413 225.498-210.247 225.498-179.745 0-210.247-99.132-210.247-225.498 0-66.451 96.953-296.306 210.247-296.306zM513.089 873.94c119.83 0 139.438-71.898 139.438-163.404 0-47.932-66.451-206.979-139.438-206.979-76.255 0-139.438 159.047-139.438 206.979 0 91.506 19.609 163.404 139.438 163.404z" />
<glyph unicode="&#xe948;" glyph-name="os-quiz-correct" d="M873.6 827.733l-470.4-470.4-252.8 252.8-145.067-145.067 397.867-397.867 615.467 615.467-145.067 145.067zM403.2 139.733l-325.333 325.333 72.533 72.533 252.8-252.8 470.4 470.4 72.533-72.533-542.933-542.933z" />
<glyph unicode="&#xe949;" glyph-name="os-quiz-restart" horiz-adv-x="1289" d="M484.267 691.2c126.933 121.6 310.4 141.867 410.667 45.867l112 107.733c-160 153.6-423.467 150.4-588.8-7.467l-160-154.667 106.667-106.667 119.467 115.2zM62.933 877.867l-50.133-555.733 555.733 50.133-505.6 505.6zM804.267 204.8c-126.933-121.6-310.4-141.867-410.667-45.867l-112-107.733c160-153.6 423.467-150.4 588.8 7.467l160 153.6-106.667 106.667-119.467-114.133zM720 523.733l505.6-505.6 50.133 555.733-555.733-50.133z" />
<glyph unicode="&#xe94a;" glyph-name="os-quiz-wrong" d="M915.138 704.231l-146.906 146.906-256.232-256.231-256.232 256.231-146.054-146.054 256.231-256.231-257.085-257.085 146.906-146.906 257.085 257.085 256.232-256.231 146.054 146.054-256.231 256.232 256.231 256.232zM841.683 192.623l-73.453-73.453-256.232 256.232-256.232-256.232-73.453 73.453 256.232 256.231-256.232 256.232 73.453 73.453 256.232-256.232 256.232 256.232 73.453-73.453-256.232-256.232 256.232-256.231z" />
<glyph unicode="&#xe94b;" glyph-name="os-report-contacts" horiz-adv-x="1022" d="M858.667 359.467c-11.733 11.733-62.933 68.267-184.533 109.867-52.267-57.6-110.933-102.4-163.2-105.6-52.267 2.133-110.933 46.933-163.2 105.6-121.6-41.6-171.733-98.133-184.533-109.867-129.067-131.2-55.467-270.933 11.733-324.267 46.933-37.333 135.467-86.4 334.933-89.6 198.4 3.2 288 52.267 334.933 89.6 68.267 53.333 142.933 193.067 13.867 324.267zM789.333 90.667c-40.533-35.2-138.667-71.467-279.467-74.667-139.733 3.2-237.867 39.467-279.467 74.667-42.667 37.333-104.533 131.2-18.133 218.667-1.067-1.067 34.133 40.533 117.333 74.667 56.533-56.533 124.8-97.067 180.267-99.2 56.533 2.133 123.733 42.667 180.267 99.2 83.2-34.133 118.4-75.733 117.333-74.667 86.4-87.467 25.6-181.333-18.133-218.667zM512 421.333c113.067 0 213.333 201.6 213.333 299.733 0 128-29.867 228.267-213.333 228.267-182.4 0-213.333-100.267-213.333-228.267 0-66.133 98.133-299.733 213.333-299.733zM512 878.933c121.6 0 140.8-72.533 140.8-165.333 0-49.067-67.2-210.133-140.8-210.133-76.8 0-140.8 161.067-140.8 210.133-1.067 91.733 19.2 165.333 140.8 165.333z" />
<glyph unicode="&#xe94c;" glyph-name="os-report-discovery" horiz-adv-x="1022" d="M620.8 601.6c-30.933 22.4-69.333 35.2-109.867 35.2-104.533 0-188.8-84.267-188.8-188.8 0-41.6 12.8-78.933 35.2-109.867l-130.133-173.867 173.867 130.133c30.933-22.4 69.333-35.2 109.867-35.2 104.533 0 188.8 84.267 188.8 188.8 0 41.6-13.867 78.933-35.2 109.867l130.133 173.867-173.867-130.133zM439.467 448l-41.6-55.467c-8.533 17.067-12.8 35.2-12.8 55.467 0 69.333 56.533 125.867 125.867 125.867 20.267 0 38.4-4.267 55.467-12.8l-55.467-41.6c-39.467 0-71.467-32-71.467-71.467v0zM510.933 322.133c-20.267 0-38.4 4.267-55.467 12.8l55.467 41.6c0 0 0 0 0 0 39.467 0 71.467 32 71.467 71.467 0 0 0 0 0 0l41.6 55.467c8.533-17.067 12.8-35.2 12.8-55.467 0-69.333-56.533-125.867-125.867-125.867zM1015.467 449.067c0 278.4-226.133 504.533-504.533 504.533v0 0c-278.4 0-504.533-226.133-504.533-504.533v0 0c0-278.4 226.133-504.533 504.533-504.533v0 0c278.4-1.067 504.533 225.067 504.533 504.533v0 0zM948.267 388.267c-26.667-196.267-182.4-352-378.667-377.6l-58.667 58.667-58.667-58.667c-196.267 26.667-352 181.333-378.667 377.6l59.733 59.733-59.733 59.733c26.667 196.267 182.4 352 378.667 377.6l58.667-58.667 58.667 58.667c196.267-26.667 352-181.333 378.667-377.6l-59.733-59.733 59.733-59.733z" />
<glyph unicode="&#xe94d;" glyph-name="os-report-revenue" horiz-adv-x="1022" d="M553.6 502.4h-86.4v236.8h86.4v-236.8zM553.6 154.667h-86.4v236.8h86.4v-236.8zM404.267 502.4c-189.867 4.267-284.8 43.733-284.8 118.4 0 73.6 94.933 113.067 284.8 118.4v-236.8zM615.467 155.733v235.733c190.933-4.267 285.867-42.667 285.867-118.4 1.067-74.667-94.933-114.133-285.867-117.333v0zM615.467 502.4v236.8c161.067-5.333 256-38.4 283.733-98.133l107.733 26.667c-33.067 114.133-163.2 174.933-391.467 182.4v100.267h-61.867v-99.2h-86.4v99.2h-62.933v-100.267c-264.533-6.4-397.867-83.2-397.867-228.267 0-146.133 132.267-221.867 397.867-228.267v-236.8c-157.867 5.333-251.733 36.267-281.6 93.867l-108.8-29.867c35.2-109.867 165.333-168.533 390.4-174.933v-99.2h62.933v97.067h86.4v-97.067h61.867v99.2c265.6 6.4 397.867 82.133 397.867 228.267 1.067 144-132.267 219.733-397.867 228.267v0zM385.067 950.4h82.133v-1004.8h-82.133v1004.8zM553.6 950.4h82.133v-1004.8h-82.133v1004.8z" />
<glyph unicode="&#xe94e;" glyph-name="os-report-stats" d="M477.867 413.867v532.267c-260.267-18.133-466.133-235.733-466.133-500.267 0-277.333 225.067-501.333 501.333-501.333 172.8 0 325.333 87.467 414.933 219.733 0 1.067 1.067 1.067 1.067 2.133 3.2 5.333 7.467 10.667 10.667 17.067 1.067 1.067 2.133 2.133 2.133 4.267 3.2 5.333 6.4 11.733 9.6 17.067s5.333 10.667 8.533 16c1.067 1.067 1.067 3.2 2.133 4.267 2.133 5.333 5.333 9.6 7.467 14.933 1.067 2.133 1.067 3.2 2.133 5.333 2.133 5.333 4.267 9.6 6.4 14.933 1.067 2.133 2.133 4.267 2.133 6.4 2.133 4.267 3.2 9.6 5.333 13.867 1.067 3.2 2.133 5.333 3.2 8.533 1.067 4.267 2.133 8.533 4.267 11.733 1.067 4.267 3.2 9.6 4.267 13.867 1.067 2.133 1.067 4.267 2.133 7.467 7.467 29.867 12.8 60.8 13.867 91.733h-535.467zM512 9.6c-242.133 0-438.4 196.267-438.4 437.333 0 206.933 144 376.533 337.067 422.4v-523.733h524.8c-44.8-192-215.467-336-423.467-336zM546.133 946.133v-465.067h468.267c-18.133 250.667-218.667 450.133-468.267 465.067zM613.333 880c150.4-21.333 299.733-169.6 330.667-330.667h-330.667v330.667z" />
<glyph unicode="&#xe94f;" glyph-name="os-report-time" horiz-adv-x="1022" d="M510.933 940.8c-272 0-492.8-220.8-492.8-492.8s220.8-492.8 492.8-492.8c272 0 492.8 220.8 492.8 492.8 0 0 0 0 0 0 0 272-220.8 492.8-492.8 492.8zM941.867 448c0-237.867-193.067-430.933-430.933-430.933s-430.933 193.067-430.933 430.933c0 237.867 193.067 430.933 430.933 430.933s430.933-193.067 430.933-430.933c0 0 0 0 0 0zM791.467 613.333l-247.467-142.933v354.133c0 18.133-14.933 33.067-33.067 33.067s-33.067-14.933-33.067-33.067v-398.933c0-2.133 0-3.2 0-5.333-1.067-6.4 0-12.8 3.2-19.2 7.467-13.867 25.6-18.133 39.467-10.667l299.733 172.8c13.867 7.467 18.133 25.6 10.667 39.467s-25.6 18.133-39.467 10.667z" />
<glyph unicode="&#xe950;" glyph-name="os-report-views" horiz-adv-x="1438" d="M1347.2 384c-104.533 141.867-257.067 247.467-433.067 293.333 69.333-57.6 115.2-142.933 115.2-240 0-171.733-139.733-311.467-311.467-311.467s-311.467 139.733-311.467 311.467c0 97.067 45.867 183.467 115.2 240-176-45.867-327.467-151.467-433.067-293.333h-82.133c151.467 232.533 412.8 386.133 710.4 386.133s558.933-153.6 710.4-386.133h-80zM718.933 684.8c-133.333 0-241.067-107.733-241.067-241.067s107.733-241.067 241.067-241.067c133.333 0 241.067 107.733 241.067 241.067 0 132.267-107.733 241.067-241.067 241.067zM718.933 265.6c-94.933 0-171.733 76.8-171.733 171.733s76.8 171.733 171.733 171.733c16 0 32-3.2 46.933-7.467-29.867-12.8-51.2-43.733-51.2-78.933 0-46.933 38.4-86.4 86.4-86.4 37.333 0 67.2 23.467 80 56.533 6.4-18.133 10.667-36.267 10.667-56.533-1.067-93.867-77.867-170.667-172.8-170.667z" />
<glyph unicode="&#xe951;" glyph-name="os-reports-emails" horiz-adv-x="1049" d="M524.8 951.467c-277.333 0-502.4-225.067-502.4-502.4s225.067-502.4 502.4-502.4c277.333 0 502.4 225.067 502.4 502.4s-225.067 502.4-502.4 502.4zM524.8-4.267c-249.6 0-452.267 202.667-452.267 452.267s202.667 452.267 452.267 452.267c249.6 0 452.267-202.667 452.267-452.267s-202.667-452.267-452.267-452.267zM555.733 742.4c-188.8 0-312.533-150.4-312.533-322.133 0-164.267 120.533-265.6 260.267-265.6 58.667 0 103.467 8.533 152.533 32l-13.867 42.667c-34.133-18.133-78.933-27.733-124.8-27.733-124.8 0-216.533 83.2-216.533 224 0 166.4 114.133 269.867 247.467 269.867 131.2 0 202.667-85.333 202.667-201.6 0-97.067-46.933-148.267-86.4-147.2-25.6 0-33.067 26.667-22.4 83.2l26.667 154.667c-22.4 10.667-58.667 19.2-96 19.2-119.467 0-199.467-94.933-199.467-198.4 0-67.2 41.6-107.733 93.867-107.733 46.933 0 85.333 22.4 113.067 69.333h2.133c2.133-48 30.933-69.333 68.267-69.333 85.333 0 155.733 75.733 155.733 200.533 0 140.8-102.4 244.267-250.667 244.267zM579.2 455.467c-8.533-50.133-46.933-100.267-86.4-100.267-30.933 0-46.933 23.467-46.933 58.667 0 71.467 50.133 134.4 115.2 134.4 13.867 0 25.6-2.133 34.133-5.333l-16-87.467z" />
<glyph unicode="&#xe952;" glyph-name="os-reports-polls" horiz-adv-x="1067" d="M923.733 859.733h-910.933v-216.533h910.933v216.533zM880 686.933h-823.467v130.133h823.467v-130.133zM707.2 556.8h-694.4v-216.533h694.4v216.533zM663.467 382.933h-606.933v130.133h606.933v-130.133zM12.8 252.8v-216.533h1041.067v216.533h-1041.067zM1010.133 80h-953.6v130.133h953.6v-130.133z" />
<glyph unicode="&#xe953;" glyph-name="os-reports-revenue" horiz-adv-x="811" d="M407.467 492.8c-10.667 0-18.133 3.2-24.533 9.6-6.4 7.467-10.667 18.133-14.933 35.2l-29.867-7.467c4.267-23.467 11.733-40.533 20.267-51.2 9.6-10.667 23.467-18.133 40.533-21.333v-32h23.467v33.067c14.933 5.333 27.733 13.867 37.333 27.733s13.867 29.867 13.867 48c0 18.133-5.333 34.133-14.933 48-3.2 5.333-9.6 9.6-16 14.933-7.467 5.333-16 10.667-27.733 17.067-12.8 6.4-21.333 12.8-25.6 17.067-4.267 5.333-6.4 11.733-6.4 19.2 0 8.533 2.133 14.933 7.467 21.333 5.333 5.333 11.733 8.533 20.267 8.533 12.8 0 23.467-8.533 30.933-25.6l26.667 17.067c-6.4 12.8-12.8 22.4-19.2 28.8s-16 10.667-26.667 12.8v32h-23.467v-32c-7.467-2.133-13.867-5.333-20.267-9.6-5.333-4.267-10.667-8.533-14.933-13.867s-7.467-11.733-9.6-18.133c-2.133-6.4-3.2-13.867-3.2-21.333 0-16 4.267-29.867 12.8-41.6 5.333-7.467 17.067-16 35.2-25.6 8.533-4.267 16-8.533 21.333-12.8s9.6-7.467 12.8-10.667c5.333-6.4 8.533-14.933 8.533-25.6 0-11.733-3.2-21.333-9.6-28.8-6.4-8.533-14.933-12.8-24.533-12.8zM672 273.067c-56.533-87.467-154.667-145.067-266.667-145.067s-210.133 57.6-266.667 145.067c-37.333 32-68.267 70.4-92.8 114.133 28.8-172.8 178.133-305.067 359.467-305.067s329.6 131.2 359.467 305.067c-23.467-43.733-55.467-82.133-92.8-114.133zM672 136.533c-56.533-87.467-154.667-145.067-266.667-145.067s-210.133 57.6-266.667 145.067c-37.333 32-68.267 70.4-92.8 114.133 28.8-172.8 178.133-305.067 359.467-305.067s329.6 131.2 359.467 305.067c-23.467-43.733-55.467-82.133-92.8-114.133zM405.333 219.733c200.533 0 363.733 163.2 363.733 365.867 0 201.6-163.2 365.867-363.733 365.867s-363.733-163.2-363.733-365.867c0-202.667 163.2-365.867 363.733-365.867zM405.333 905.6c176 0 318.933-142.933 318.933-320s-142.933-320-318.933-320c-176 0-318.933 142.933-318.933 320s142.933 320 318.933 320z" />
<glyph unicode="&#xe954;" glyph-name="os-reports-sets" horiz-adv-x="1067" d="M940.8 545.067v155.733h-194.133v155.733h-738.133v-582.4h147.2v38.4h-110.933v504.533h663.467v-116.267h-545.067v-544h155.733v-116.267h738.133v504.533h-116.267zM204.8 196.267v466.133h694.4v-116.267h-579.2v-349.867h-115.2zM1016.533 82.133h-656v420.267h656v-420.267z" />
<glyph unicode="&#xe955;" glyph-name="os-reports-time" horiz-adv-x="1031" d="M517.333 469.333l-162.133 162.133-32-32 194.133-194.133 259.2 259.2-32 32-227.2-227.2zM515.2 951.467c-278.4 0-503.467-225.067-503.467-503.467s225.067-503.467 503.467-503.467c278.4 0 503.467 225.067 503.467 503.467s-225.067 503.467-503.467 503.467zM515.2-9.6c-252.8 0-457.6 204.8-457.6 457.6s204.8 457.6 457.6 457.6c252.8 0 457.6-204.8 457.6-457.6s-204.8-457.6-457.6-457.6z" />
<glyph unicode="&#xe956;" glyph-name="os-reports-traffic" horiz-adv-x="811" d="M801.067 398.933c0 122.667-91.733 222.933-204.8 222.933-16 0-30.933-2.133-44.8-5.333-39.467 33.067-90.667 53.333-145.067 53.333-55.467 0-105.6-20.267-145.067-53.333-14.933 3.2-29.867 5.333-44.8 5.333-113.067 0-204.8-100.267-204.8-222.933 0-66.133 26.667-124.8 68.267-165.333-3.2-7.467-5.333-16-5.333-25.6v-190.933c0-35.2 27.733-64 62.933-64 26.667 0 49.067 17.067 58.667 40.533-3.2 7.467-4.267 14.933-4.267 23.467v188.8c-7.467 1.067-14.933 3.2-22.4 5.333v-194.133c0-17.067-13.867-32-32-32-17.067 0-32 13.867-32 32v231.467c-38.4 36.267-62.933 89.6-62.933 150.4 0 107.733 77.867 195.2 173.867 195.2 5.333 0 10.667 0 17.067-1.067 3.2 2.133 6.4 4.267 9.6 5.333-41.6-42.667-67.2-102.4-67.2-167.467 0-70.4 29.867-134.4 76.8-178.133-3.2-8.533-5.333-17.067-5.333-26.667v-204.8c0-37.333 32-68.267 71.467-68.267s71.467 30.933 71.467 68.267v171.733c5.333 0 11.733-1.067 18.133-1.067s11.733 0 18.133 1.067v-171.733c0-37.333 32-68.267 71.467-68.267s71.467 30.933 71.467 68.267v204.8c0 9.6-2.133 18.133-5.333 26.667 46.933 43.733 76.8 106.667 76.8 178.133 0 65.067-25.6 124.8-67.2 167.467 3.2-2.133 6.4-3.2 9.6-5.333 5.333 1.067 10.667 1.067 17.067 1.067 96 0 173.867-87.467 173.867-195.2 0-60.8-24.533-114.133-62.933-150.4v-231.467c0-17.067-13.867-32-32-32-17.067 0-32 13.867-32 32v194.133c-7.467-2.133-14.933-4.267-22.4-5.333v-188.8c0-8.533-2.133-16-4.267-23.467 9.6-23.467 32-40.533 58.667-40.533 35.2 0 62.933 28.8 62.933 64v190.933c0 8.533-2.133 17.067-5.333 25.6 37.333 40.533 64 100.267 64 165.333zM600.533 430.933c0-65.067-27.733-122.667-71.467-161.067v-248.533c0-19.2-16-34.133-35.2-34.133s-35.2 14.933-35.2 34.133v208c-17.067-5.333-35.2-8.533-53.333-8.533s-36.267 3.2-53.333 8.533v-208c0-19.2-16-34.133-35.2-34.133s-35.2 14.933-35.2 34.133v248.533c-43.733 38.4-71.467 96-71.467 161.067 0 115.2 87.467 209.067 195.2 209.067s195.2-93.867 195.2-209.067zM596.267 685.867c-11.733 0-23.467 3.2-33.067 7.467-7.467-8.533-16-16-25.6-22.4 17.067-10.667 37.333-17.067 58.667-17.067 60.8 0 110.933 50.133 110.933 110.933 0 61.867-49.067 110.933-110.933 110.933-21.333 0-41.6-6.4-58.667-17.067 9.6-6.4 18.133-13.867 25.6-22.4 10.667 5.333 21.333 7.467 33.067 7.467 43.733 0 78.933-35.2 78.933-80 0-42.667-35.2-77.867-78.933-77.867zM405.333 704c68.267 0 123.733 53.333 123.733 119.467s-55.467 119.467-123.733 119.467c-68.267 0-123.733-53.333-123.733-119.467s55.467-119.467 123.733-119.467zM405.333 908.8c49.067 0 88.533-38.4 88.533-85.333s-39.467-85.333-88.533-85.333c-49.067 0-88.533 38.4-88.533 85.333s39.467 85.333 88.533 85.333zM215.467 653.867c21.333 0 41.6 6.4 58.667 17.067-9.6 6.4-18.133 13.867-25.6 22.4-10.667-5.333-21.333-7.467-33.067-7.467-43.733 0-78.933 35.2-78.933 80 0 43.733 35.2 80 78.933 80 11.733 0 23.467-3.2 33.067-7.467 7.467 8.533 16 16 25.6 22.4-17.067 10.667-37.333 17.067-58.667 17.067-60.8 0-110.933-50.133-110.933-110.933 0-62.933 50.133-113.067 110.933-113.067z" />
<glyph unicode="&#xe957;" glyph-name="os-reports-votes" horiz-adv-x="985" d="M791.467 960h-593.067c-91.733 0-168.533-77.867-168.533-170.667v-434.133c0-92.8 76.8-182.4 168.533-182.4h168.533l337.067-236.8v236.8h86.4c91.733 0 164.267 89.6 164.267 182.4v435.2c1.067 92.8-71.467 169.6-163.2 169.6zM827.733 224l-168.533 1.067v-184.533l-274.133 183.467h-229.333c-41.6 0-73.6 39.467-73.6 83.2v521.6c0 43.733 32 80 73.6 80h670.933c41.6 0 74.667-36.267 74.667-80v-521.6c1.067-43.733-32-83.2-73.6-83.2zM685.867 728.533c-6.4 6.4-16 6.4-22.4 0l-217.6-217.6c-6.4-6.4-16-6.4-21.333-1.067l-103.467 94.933c-6.4 6.4-17.067 5.333-22.4-1.067l-32-38.4c-5.333-7.467-5.333-18.133 1.067-23.467l160-145.067c6.4-5.333 16-5.333 21.333 1.067l270.933 272c6.4 6.4 6.4 17.067 0 23.467l-34.133 35.2z" />
<glyph unicode="&#xe958;" glyph-name="os-set-arrow-left" horiz-adv-x="652" d="M196.267 448l427.733 388.267c30.933 27.733 30.933 73.6 0 101.333-30.933 28.8-81.067 28.8-112 1.067l-483.2-439.467c-30.933-27.733-30.933-73.6 0-101.333l483.2-440.533c30.933-27.733 81.067-27.733 112 0s30.933 73.6 0 101.333l-427.733 389.333z" />
<glyph unicode="&#xe959;" glyph-name="os-set-arrow-right" horiz-adv-x="652" d="M624 499.2l-484.267 439.467c-30.933 27.733-80 27.733-110.933 0s-30.933-73.6 0-101.333l427.733-389.333-427.733-388.267c-30.933-27.733-30.933-73.6 0-101.333s81.067-27.733 112 0l483.2 439.467c29.867 27.733 29.867 72.533 0 101.333z" />
<glyph unicode="&#xe95a;" glyph-name="os-sn-embed" horiz-adv-x="1509" d="M441.6 800c-28.8 28.8-78.933 23.467-113.067-10.667l-289.067-289.067c-2.133-2.133-4.267-4.267-5.333-6.4-1.067-1.067-3.2-2.133-4.267-4.267-13.867-13.867-19.2-32-18.133-51.2-1.067-19.2 5.333-38.4 18.133-51.2 1.067-1.067 3.2-3.2 4.267-4.267 2.133-2.133 4.267-4.267 5.333-6.4l289.067-289.067c34.133-34.133 85.333-38.4 113.067-10.667 28.8 28.8 23.467 78.933-10.667 113.067l-247.467 247.467 247.467 247.467c34.133 36.267 39.467 86.4 10.667 115.2zM1479.467 490.667c-1.067 1.067-3.2 3.2-4.267 4.267-2.133 2.133-4.267 4.267-5.333 6.4l-289.067 289.067c-34.133 34.133-85.333 38.4-113.067 10.667-28.8-28.8-23.467-78.933 10.667-113.067l247.467-247.467-247.467-247.467c-34.133-34.133-38.4-85.333-10.667-113.067 28.8-28.8 78.933-23.467 113.067 10.667l289.067 289.067c2.133 2.133 4.267 4.267 5.333 6.4 1.067 1.067 3.2 2.133 4.267 4.267 13.867 13.867 19.2 32 18.133 51.2 2.133 17.067-4.267 35.2-18.133 49.067zM877.867 940.8c-38.4 10.667-81.067-19.2-92.8-66.133l-218.667-817.067c-12.8-46.933 8.533-92.8 48-103.467 38.4-10.667 81.067 19.2 92.8 66.133l218.667 817.067c12.8 46.933-8.533 92.8-48 103.467z" />
<glyph unicode="&#xe95b;" glyph-name="os-sn-facebook" horiz-adv-x="704" d="M419.2-48v434.133h185.6l30.933 185.6h-216.533v92.8c0 61.867 30.933 92.8 92.8 92.8h92.8v186.667c-30.933 0-100.267 0-154.667 0-154.667 0-216.533-92.8-216.533-247.467v-123.733h-185.6v-185.6h185.6v-434.133h185.6v-1.067z" />
<glyph unicode="&#xe95c;" glyph-name="os-sn-gplus" horiz-adv-x="1120" d="M691.2 946.133c0 0-229.333 0-307.2 0-140.8 0-273.067-98.133-273.067-221.867 0-125.867 96-224 238.933-224 9.6 0 20.267 2.133 28.8 2.133-9.6-18.133-16-37.333-16-57.6 0-35.2 18.133-62.933 42.667-86.4-18.133 0-35.2 0-54.4 0-173.867 0-308.267-110.933-308.267-226.133 0-113.067 147.2-184.533 321.067-184.533 198.4 0 308.267 113.067 308.267 226.133 0 90.667-26.667 145.067-109.867 203.733-28.8 21.333-82.133 70.4-82.133 99.2 0 34.133 9.6 50.133 59.733 89.6 51.2 40.533 88.533 88.533 88.533 154.667 0 78.933-34.133 174.933-99.2 174.933h112l50.133 50.133zM587.733 195.2c2.133-10.667 4.267-21.333 4.267-32 0-91.733-58.667-163.2-228.267-163.2-120.533 0-206.933 75.733-206.933 167.467 0 89.6 107.733 164.267 228.267 163.2 27.733 0 54.4-4.267 77.867-12.8 64-45.867 110.933-71.467 124.8-122.667v0zM394.667 536.533c-80 2.133-157.867 90.667-171.733 196.267-13.867 106.667 40.533 187.733 120.533 184.533 80-2.133 157.867-87.467 171.733-193.067 14.933-105.6-39.467-190.933-120.533-187.733v0zM939.733 548.267v149.333h-99.2v-149.333h-149.333v-99.2h149.333v-149.333h99.2v149.333h149.333v99.2h-149.333z" />
<glyph unicode="&#xe95d;" glyph-name="os-sn-tumblr" horiz-adv-x="629" d="M348.8 940.8v-259.2h238.933v-167.467h-238.933v-235.733c0-57.6 3.2-94.933 9.6-110.933s18.133-29.867 34.133-39.467c22.4-12.8 48-20.267 76.8-20.267 51.2 0 101.333 16 151.467 49.067v-156.8c-7.467-3.2-23.467-54.4-196.267-54.4-278.4 0-278.4 193.067-278.4 237.867v331.733h-137.6v162.133c39.467 12.8 65.067 28.8 93.867 52.267 27.733 23.467 51.2 52.267 68.267 85.333s28.8 83.2 35.2 134.4h142.933v-8.533z" />
<glyph unicode="&#xe95e;" glyph-name="os-sn-twitter" horiz-adv-x="1280" d="M1238.4 811.733c-43.733-19.2-90.667-32-139.733-38.4 51.2 29.867 89.6 76.8 107.733 132.267-46.933-27.733-99.2-46.933-154.667-58.667-43.733 46.933-107.733 75.733-178.133 75.733-134.4 0-244.267-107.733-244.267-241.067 0-19.2 2.133-37.333 6.4-54.4-202.667 10.667-382.933 105.6-503.467 250.667-21.333-35.2-33.067-76.8-33.067-120.533 0-83.2 43.733-156.8 108.8-200.533-39.467 1.067-77.867 11.733-110.933 29.867 0-1.067 0-2.133 0-3.2 0-117.333 84.267-213.333 196.267-235.733-20.267-5.333-41.6-8.533-64-8.533-16 0-30.933 1.067-45.867 4.267 30.933-94.933 121.6-165.333 228.267-167.467-83.2-64-188.8-102.4-304-102.4-19.2 0-39.467 1.067-58.667 4.267 107.733-68.267 236.8-107.733 374.4-107.733 450.133 0 695.467 366.933 695.467 683.733 0 10.667 0 21.333-1.067 30.933 45.867 36.267 87.467 78.933 120.533 126.933v0z" />
<glyph unicode="&#xe95f;" glyph-name="os-status-closed" horiz-adv-x="1067" d="M887.467 802.133c-195.2 195.2-512 195.2-707.2 0s-195.2-512 0-707.2 512-195.2 707.2 0c195.2 195.2 195.2 512 0 707.2zM760.533 356.267h-454.4c-50.133 0-90.667 40.533-90.667 90.667s40.533 90.667 90.667 90.667h454.4c50.133 0 90.667-40.533 90.667-90.667s-40.533-90.667-90.667-90.667z" />
<glyph unicode="&#xe960;" glyph-name="os-status-draft" horiz-adv-x="1067" d="M886.4 801.067c-195.2 195.2-510.933 195.2-705.067 0s-195.2-510.933 0-705.067 510.933-195.2 705.067 0 194.133 509.867 0 705.067zM612.267 216.533l-382.933 382.933 152.533 152.533 382.933-382.933 34.133-186.667-186.667 34.133z" />
<glyph unicode="&#xe961;" glyph-name="os-status-open" horiz-adv-x="1067" d="M887.467 802.133c-195.2 195.2-512 195.2-707.2 0s-195.2-512 0-707.2 512-195.2 707.2 0c195.2 195.2 195.2 512 0 707.2zM800 521.6l-275.2-275.2c-30.933-30.933-84.267-26.667-119.467 9.6l-129.067 129.067c-35.2 35.2-35.2 92.8 0 129.067 35.2 35.2 92.8 35.2 129.067 0l64-64 201.6 201.6c30.933 30.933 84.267 26.667 119.467-9.6s39.467-89.6 9.6-120.533z" />
<glyph unicode="&#xe962;" glyph-name="os-status-published" horiz-adv-x="1067" d="M533.333 614.4c-97.067 0-174.933-74.667-174.933-166.4s77.867-166.4 174.933-166.4 174.933 74.667 174.933 166.4-77.867 166.4-174.933 166.4zM533.333 364.8c-48 0-87.467 37.333-87.467 83.2 48 0 87.467 37.333 87.467 83.2 48 0 87.467-37.333 87.467-83.2s-39.467-83.2-87.467-83.2zM886.4 801.067c-195.2 195.2-509.867 195.2-705.067 0s-195.2-509.867 0-705.067 509.867-195.2 705.067 0 194.133 509.867 0 705.067zM533.333 198.4c-179.2 0-349.867 194.133-349.867 249.6s170.667 249.6 349.867 249.6 349.867-194.133 349.867-249.6-170.667-249.6-349.867-249.6z" />
</font>
</defs>
</svg>
